img image001 image001 image001 image001 image001 image001 image001 image001 image001 image001 image001 image001 image001 image001 image001

Planets Sun Sun Sun
Статистика раздачи
Автор: Снежана | Размер: 1.56 ГБ | Добавлен: 26 июл 2013
Раздают: 6    Качают: 3
Скачать торрент
Скачать торрент
Описание торрента

СообщениеДобавлено: 26 июл 2013 

Мешок с костями / Bag of Bones

#77
Год выпуска: 2011
Страна: США
Жанр: ужасы, драма
Продолжительность: 01:19:56 + 01:23:29
Перевод: Профессиональный (полное дублирование) - ТВ3
Субтитры: Нет

Режиссёр: Мик Гэррис / Mick Garris

В ролях: Пирс Броснан, Мелисса Джордж, Мэтт Фрюэр, Джейсон Пристли, Аннабет Гиш, Аника Нони Роуз, Уильям Шэллерт, Кэйтлин Кармайкл, Гари Леверт и др.

Описание: У писателя Майка Нунэна умирает жена Джоанна. После её гибели известный на весь мир автор мистических романов намеренно делает из себя затворника, отгородившись от остального мира. Но проходит несколько лет, и по стечению обстоятельств писатель встречает девушку Мэтти, в которую влюбляется, хотя и не желает признаваться в этом самому себе. Его жизнь начинается с чистого листа. После признания в своих чувствах новоявленной невесте Майклу придётся столкнуться с не менее жутким кошмаром, чем смерть собственной жены. Мистические приключения; реалистичные жуткие сны; жестокие родственники Мэтти, пытающиеся отправить писателя на тот свет, и конечно же появляющаяся время от времени Джоанна... Её призрак всё время пытается уберечь Майкла от неверного шага...




Качество: WEB-DLRip-AVC
Формат: MKV
Видео кодек: H264
Аудио кодек: MP3
Видео: 752x424 (16:9), 23.976 fps, H264, 1 266 Kbps, 0.166 bit/pixel
Аудио: 48 kHz, MPEG Layer 3, 2 ch, ~128.00 kbps avg

Раздача от:


D:Bag.of.Bones.s01e.WEB-DLRip-AVC.by_dexter_lexBag.of.Bones.s01e01.Part.One.WEB-DLRip-AVC.by_dexter_lex.mkv
General
Unique ID : 170825140447786884204356527034730931257 (0x8083B9AED9B156D2BDB985C78825E439)
Complete name : D:Bag.of.Bones.s01e.WEB-DLRip-AVC.by_dexter_lexBag.of.Bones.s01e01.Part.One.WEB-DLRip-AVC.by_dexter_lex.mkv
Format : Matroska
Format version : Version 2
File size : 798 MiB
Duration : 1h 19mn
Overall bit rate : 1 396 Kbps
Encoded date : UTC 2013-07-21 18:41:10
Writing application : mkvmerge v6.1.0 ('Old Devil') built on Mar 4 2013 09:10:42
Writing library : libebml v1.3.0 + libmatroska v1.4.0
Video #1
ID : 1
Format : AVC
Format/Info : Advanced Video Codec
Format profile : High@L4.1
Format settings, CABAC : Yes
Format settings, ReFrames : 8 frames
Codec ID : V_MPEG4/ISO/AVC
Duration : 1h 19mn
Bit rate : 1 266 Kbps
Width : 752 pixels
Height : 424 pixels
Display aspect ratio : 16:9
Frame rate : 23.976 fps
Color space : YUV
Chroma subsampling : 4:2:0
Bit depth : 8 bits
Scan type : Progressive
Bits/(Pixel*Frame) : 0.166
Stream size : 709 MiB (89%)
Writing library : x264 core 130 r2273 b3065e6
Encoding settings : cabac=1 / ref=9 / deblock=1:-2:-2 / analyse=0x3:0x113 / me=umh / subme=9 / psy=1 / psy_rd=1.00:0.15 / mixed_ref=1 / me_range=32 / chroma_me=1 / trellis=2 / 8x8dct=1 / cqm=0 / deadzone=21,11 / fast_pskip=0 / chroma_qp_offset=-3 / threads=6 / lookahead_threads=1 / sliced_threads=0 / nr=0 / decimate=1 / interlaced=0 / bluray_compat=0 / constrained_intra=0 / bframes=9 / b_pyramid=2 / b_adapt=1 / b_bias=0 / direct=3 / weightb=1 / open_gop=0 / weightp=2 / keyint=240 / keyint_min=23 / scenecut=40 / intra_refresh=0 / rc_lookahead=60 / rc=2pass / mbtree=1 / bitrate=1266 / ratetol=1.0 / qcomp=0.60 / qpmin=0 / qpmax=69 / qpstep=4 / cplxblur=20.0 / qblur=0.5 / ip_ratio=1.40 / aq=1:1.00
Default : Yes
Forced : No
Audio #2
ID : 2
Format : MPEG Audio
Format version : Version 1
Format profile : Layer 3
Codec ID : A_MPEG/L3
Codec ID/Hint : MP3
Duration : 1h 19mn
Bit rate mode : Constant
Bit rate : 128 Kbps
Channel(s) : 2 channels
Sampling rate : 48.0 KHz
Compression mode : Lossy
Stream size : 73.2 MiB (9%)
Writing library : LAME3.99r
Encoding settings : -m s -V 4 -q 2 -lowpass 17 -b 128
Default : Yes
Forced : No



   Похожие торренты   Торрент   Размер 
В этой теме нет новых непрочитанных сообщений. Мешок с костями / Bag Of Bones [01-02 из 02] (2011) WEB-DLRip от Youtracker | TB3

7 | 1

1.45 ГБ

В этой теме нет новых непрочитанных сообщений. Мешок с костями / Bag Of Bones [01-02 из 02] (2011) WEB-DLRip | A

77 | 9

2.88 ГБ

В этой теме нет новых непрочитанных сообщений. Мешок с костями / Bag Of Bones [01-02 из 02] (2011) WEB-DLRip | ТВ3

11 | 2

2.74 ГБ

В этой теме нет новых непрочитанных сообщений. Мешок с костями / Bag of bones [01-02 из 02] (2011) HDTVRip от Xixidok

1 | 1

1.34 ГБ

В этой теме нет новых непрочитанных сообщений. Мешок с костями / Bag Of Bones [01-02 из 02] (2011) HDRip от Scarabey | P

48 | 17

2.73 ГБ

В этой теме нет новых непрочитанных сообщений. Мешок с костями. Часть 2 / Bag of bones. Part 2 (2011) HDTVRip

0 | 1

1.43 ГБ

В этой теме нет новых непрочитанных сообщений. Мешок с костями / Bag of Bones [01-02 из 02] (2011) WEB-DL 1080p | AlexFilm & NewStudio

54 | 7

12.09 ГБ




Вы не можете начинать темы
Вы не можете отвечать на сообщения
Вы не можете редактировать свои сообщения
Вы не можете удалять свои сообщения
Вы не можете добавлять вложения

Перейти:  
Для Мосгорсуда, Роскомнадзора и рекламодателей: mosgorsud-torrent[собачка]yandex.ru
 Вход
ppkBB3cker v.2 © 2008-2014 @ PPK
[ Time : 0.047s | 14 Queries | GZIP : Off ]

Торрент трекер RUTOR.IN, Не можете зайти на rutor.org? Какой новый адрес рутор? Какое зеркало рутор? Не работает rutor.org и зеркала? Тогда наш торрент специально для вас. Rutor.in неофициальное зеркало rutor. В случае если у Вас заблокирован rutor или вдруг Вы не можете на него зайти, то Вы без труда сможете скачать бесплатно и без рекламы последние новинки кино, игр, сериалов и прочего у нас, на Rutor.in. Не нужно использовать прокси, чтобы зайти на рутор, достаточно воспользоваться нашим ресурсом. Все новые фильмы, игры, сериалы, книги и музыка за 2013 и 2014 годы через торрент бесплатно. Скачивайте фильмы в хорошем качестве, игры для пк, xbox, playstation без регистрации. У нас вы найдете новые Зарубежные сериалы и Русские сериалы 2013, 2014, 2015 годов. Оставайтесь с нами, качайте любимые фильмы, игры, сериалы, книги и музыку.