img image001 image001 image001 image001 image001 image001 image001 image001 image001 image001 image001 image001 image001 image001 image001

Planets Sun Sun Sun
Статистика раздачи
Автор: Снежана | Размер: 5.3 ГБ | Добавлен: 25 июл 2013
Раздают: 21    Качают: 9
Скачать торрент
Скачать торрент
Описание торрента

СообщениеДобавлено: 25 июл 2013 

Год выпуска: 2013
Производство: Россия, Story First Production
Жанр: Мелодрама
Продолжительность: 00:23:44 / серия
Субтитры: нет

Режиссёр: Артем Насыбулин, Сергей Пищиков, Алексей Гирба, Виталий Скородумов, Леонид Коновалов (II)

В ролях: Анастасия Бусыгина, Ольга Хохлова (II), Мария Кунах, Елена Афонина, Ксения Непотребная, Анастасия Сапожникова, Дмитрий Юмашев, Владимир Кебин, Артем Кашкин, Наталья Жернакова, Антон Юрьев, Дмитрий Оленцов, Николай Сороканов, Милена Нестерова

Описание: Главные герои сериала "ЗАГС" – работники данного государственного органа. Сюжет – истории посетителей, так или иначе связанные с этими самыми государственными состояниями.

А ситуации, как и состояния, могут быть очень разными. От самых счастливых до трагических.

Сэмпл: http://multi-up.com/882525

Качество: DVB
Формат: MPEG-PS
Видео кодек: MPEG2
Аудио кодек: MP2
Видео: MPEG-2 Video, 720x576 (4:3), 25 fps, 1 745 Kbps, 0.17 bit/pixel
Аудио: Russian: MPEG Audio, 48 kHz, 2 ch, 256 kbps
General
Complete name : C:ЗАГС_1 из 20.mpg
Format : MPEG-PS
File size : 347 MiB
Duration : 23mn 44s
Overall bit rate mode : Variable
Overall bit rate : 2 041 Kbps

Video
ID : 224 (0xE0)
Format : MPEG Video
Format version : Version 2
Format profile : Main@Main
Format settings, BVOP : Yes
Format settings, Matrix : Custom
Format settings, GOP : M=3, N=15
Duration : 23mn 44s
Bit rate mode : Variable
Bit rate : 1 745 Kbps
Maximum bit rate : 9 500 Kbps
Width : 720 pixels
Height : 576 pixels
Display aspect ratio : 4:3
Frame rate : 25.000 fps
Standard : PAL
Color space : YUV
Chroma subsampling : 4:2:0
Bit depth : 8 bits
Compression mode : Lossy
Bits/(Pixel*Frame) : 0.168
Time code of first frame : 00:00:00:00
Time code source : Group of pictures header
Stream size : 296 MiB (85%)

Audio
ID : 192 (0xC0)
Format : MPEG Audio
Format version : Version 1
Format profile : Layer 2
Duration : 23mn 44s
Bit rate mode : Constant
Bit rate : 256 Kbps
Channel(s) : 2 channels
Sampling rate : 48.0 KHz
Compression mode : Lossy
Stream size : 43.5 MiB (13%)





   Похожие торренты   Торрент   Размер 
В этой теме нет новых непрочитанных сообщений. ЗАГС [01-13] (2013) WEB-DLRip от Generalfilm

48 | 18

4.46 ГБ

В этой теме нет новых непрочитанных сообщений. Когда опаздывают в ЗАГС... (1991) DVDRip

112 | 46

1.37 ГБ

В этой теме нет новых непрочитанных сообщений. Полицейская история 2013 / Police Story 2013 / Jing Cha Gu Shi 2013 (2013) BDRip 720p от CINEMANIA| L2

205 | 108

6.33 ГБ

В этой теме нет новых непрочитанных сообщений. Полицейская история 2013 / Police Story 2013 / Jing Cha Gu Shi 2013 (2013) BDRip 1080p от CINEMANIA| L2

330 | 144

8.54 ГБ

В этой теме нет новых непрочитанных сообщений. Полицейская история 2013 / Police Story 2013 / Jing cha gu shi 2013 (2013) HDRip от RG Orient Extreme | A

63 | 9

749.76 МБ

В этой теме нет новых непрочитанных сообщений. Полицейская история 2013 / Police Story 2013 / Jing cha gu shi 2013 (2013) HDRip от RG Orient Extreme | A, L2

106 | 48

2.44 ГБ

В этой теме нет новых непрочитанных сообщений. Полицейская история 2013 / Police Story 2013 / Jing cha gu shi 2013 (2013) HDRip от RG Orient Extreme | A

112 | 22

1.46 ГБ




Вы не можете начинать темы
Вы не можете отвечать на сообщения
Вы не можете редактировать свои сообщения
Вы не можете удалять свои сообщения
Вы не можете добавлять вложения

Перейти:  
Для Мосгорсуда, Роскомнадзора и рекламодателей: mosgorsud-torrent[собачка]yandex.ru
 Вход
ppkBB3cker v.2 © 2008-2014 @ PPK
[ Time : 0.043s | 14 Queries | GZIP : Off ]

Торрент трекер RUTOR.IN, Не можете зайти на rutor.org? Какой новый адрес рутор? Какое зеркало рутор? Не работает rutor.org и зеркала? Тогда наш торрент специально для вас. Rutor.in неофициальное зеркало rutor. В случае если у Вас заблокирован rutor или вдруг Вы не можете на него зайти, то Вы без труда сможете скачать бесплатно и без рекламы последние новинки кино, игр, сериалов и прочего у нас, на Rutor.in. Не нужно использовать прокси, чтобы зайти на рутор, достаточно воспользоваться нашим ресурсом. Все новые фильмы, игры, сериалы, книги и музыка за 2013 и 2014 годы через торрент бесплатно. Скачивайте фильмы в хорошем качестве, игры для пк, xbox, playstation без регистрации. У нас вы найдете новые Зарубежные сериалы и Русские сериалы 2013, 2014, 2015 годов. Оставайтесь с нами, качайте любимые фильмы, игры, сериалы, книги и музыку.