img image001 image001 image001 image001 image001 image001 image001 image001 image001 image001 image001 image001 image001 image001 image001

Planets Sun Sun Sun
Статистика раздачи
Автор: Снежана | Размер: 4.38 ГБ | Добавлен: 25 июл 2013
Раздают: 67    Качают: 14
Скачать торрент
Скачать торрент
Описание торрента

СообщениеДобавлено: 25 июл 2013 

[imgright]http://i47.fastpic.ru/big/2013/0722/9d/d17b04e359203fa30c78ade4066b459d.png" style="float:left;[/imgright][imgright]http://i47.fastpic.ru/big/2013/0722/59/d0a30b3568ce08e9fae00ff4a88cd659.png[/imgright]Год выпуска: 2011
Страна: Россия
Студия: Фаворит фильм
Жанр: детектив
Продолжительность: серия ~ 50 мин.
Перевод: не требуется
Субтитры: нет
Оригинальная аудиодорожка: русский
Режиссер: Влад Фурман, Алексей Лебедев
В ролях: Светлана Кожемякина, Сергей Пускепалис, Дмитрий Щербина, Наталья Круглова, Андрей Смоляков, Сергей Русскин, Амаду Мамадаков, Максим Лагашкин, Дмитрий Поднозов, Аркадий Коваль, Анна Пескова, Владимир Кузнецов (VIII), Татьяна Колганова, Владимир Стеклов, Кирилл Полухин, Роман Агеев, Константин Воробьев, Мария Куликова, Денис Портнов, Михаил Сидаш, Георгий Корольчук, Владислав Резник, Галина Сабурова, Владислава Назарова, Сергей Кошонин, Николай Дик, Юлия Рудина, Семен Фурман, Всеволод Цурило, Валерий Гришко, Петр Семак, Эвелина Блёданс, Николай Иванов, Алена Старостина, Игорь Гузун, Алексей Девотченко...
Описание: В очень непростой для себя период жизни оперуполномоченный «карманного» отдела Иоланта Прилепина переводится в подразделение по обеспечению безопасности лиц, подлежащих государственной защите. Её представления о новой службе как о «казённо-скучной» меняются в первый же день, когда по неосмотрительности новых коллег происходит убийство ключевого свидетеля по делу — лидера преступной группировки Литвина. Пенсионерка, студент, секретарша, судья, бомж — палитра людей, попадающих под опеку оперативной группы, получившей в милицейской среде негласное название «гоблины», пестра и разнообразна. И объединяет их только одно — каждому из них угрожает реальная опасность. Чтобы со всем этим справиться, дюжине «гоблинов» приходится работать и день и ночь. А тут ещё у заместителя начальника по оперативной работе Андрея Мешечко появились небеспочвенные подозрения в том, что в его подразделении завелся «крот»...





Исходник: 2хDVD5 R5
Тип релиза: DVDRip
Контейнер: AVI

Видео: 672x352 (1,91:1), 25 fps, XviD ~ 898 kbps avg, 0.152 bit/pixel
Аудио: 48 kHz, Dolby AC3 2.0, 128 kbps

Раздача от:
Общее
Полное имя : Zashhita.svideteley.2011.DVDRip_[Youtracker]_by_AVP Studio.avi
Формат : AVI
Формат/Информация : Audio Video Interleave
Размер файла : 370 Мбайт
Продолжительность : 49 м.
Общий поток : 1036 Кбит/сек
Программа кодирования : VirtualDubModRus 1.5.10.2 (build 2542/release)
Библиотека кодирования : VirtualDubMod build 2542/release

Видео
Идентификатор : 0
Формат : MPEG-4 Visual
Профиль формата : Advanced Simple@L5
Параметр BVOP формата : 1
Параметр QPel формата : Нет
Параметр GMC формата : Без точки перехода
Параметр матрицы формата : Выборочная
Идентификатор кодека : XVID
Идентификатор кодека/Подсказка : XviD
Продолжительность : 49 м.
Битрейт : 898 Кбит/сек
Ширина : 672 пикселя
Высота : 352 пикселя
Соотношение сторон : 1,909
Частота кадров : 25,000 кадров/сек
Цветовое пространство : YUV
Субдискретизация насыщенности : 4:2:0
Битовая глубина : 8 бит
Тип развёртки : Прогрессивная
Метод сжатия : С потерями
Бит/(Пиксели*Кадры) : 0.152
Размер потока : 321 Мбайт (87%)
Библиотека кодирования : XviD 65

Аудио
Идентификатор : 1
Формат : AC-3
Формат/Информация : Audio Coding 3
Расширение режима : CM (complete main)
Идентификатор кодека : 2000
Продолжительность : 49 м.
Вид битрейта : Постоянный
Битрейт : 128 Кбит/сек
Каналы : 2 канала
Расположение каналов : Front: L R
Частота : 48,0 КГц
Битовая глубина : 16 бит
Метод сжатия : С потерями
Размер потока : 45,7 Мбайт (12%)
Выравнивание : Разделение по промежуткам
Продолжительность промежутка : 40 мс. (1,00 видеокадр)
Время предзагрузки промежутка : 500 мс





   Похожие торренты   Торрент   Размер 
В этой теме нет новых непрочитанных сообщений. Защита свидетелей [01-12 из 12] (2011) 2xDVD5 от Youtracker | Лицензия

4 | 2

8.51 ГБ

В этой теме нет новых непрочитанных сообщений. Защита свидетелей [01-12 из 12] (2011) SATRip - BigFANGroup

17 | 4

7.59 ГБ

В этой теме нет новых непрочитанных сообщений. Защита от дурака / Foolproof (2003) DVD9 от Youtracker | D | Лицензия

1 | 12

4.88 ГБ

В этой теме нет новых непрочитанных сообщений. Джеймс Хедли Чейз - Саван для свидетелей (2011) MP3

21 | 11

283.43 МБ

В этой теме нет новых непрочитанных сообщений. Без свидетелей (1983) DVDRip-AVC от ExKinoRay

91 | 17

1.76 ГБ

В этой теме нет новых непрочитанных сообщений. Без свидетелей (1983) DVDRip от KinoZalSat

329 | 15

1.37 ГБ

В этой теме нет новых непрочитанных сообщений. Dirint - Мобильные телефоны и защита от них! (2011) EXE

3 | 2

9.43 МБ




Вы не можете начинать темы
Вы не можете отвечать на сообщения
Вы не можете редактировать свои сообщения
Вы не можете удалять свои сообщения
Вы не можете добавлять вложения

Перейти:  
Для Мосгорсуда, Роскомнадзора и рекламодателей: mosgorsud-torrent[собачка]yandex.ru
 Вход
ppkBB3cker v.2 © 2008-2014 @ PPK
[ Time : 0.050s | 14 Queries | GZIP : Off ]

Торрент трекер RUTOR.IN, Не можете зайти на rutor.org? Какой новый адрес рутор? Какое зеркало рутор? Не работает rutor.org и зеркала? Тогда наш торрент специально для вас. Rutor.in неофициальное зеркало rutor. В случае если у Вас заблокирован rutor или вдруг Вы не можете на него зайти, то Вы без труда сможете скачать бесплатно и без рекламы последние новинки кино, игр, сериалов и прочего у нас, на Rutor.in. Не нужно использовать прокси, чтобы зайти на рутор, достаточно воспользоваться нашим ресурсом. Все новые фильмы, игры, сериалы, книги и музыка за 2013 и 2014 годы через торрент бесплатно. Скачивайте фильмы в хорошем качестве, игры для пк, xbox, playstation без регистрации. У нас вы найдете новые Зарубежные сериалы и Русские сериалы 2013, 2014, 2015 годов. Оставайтесь с нами, качайте любимые фильмы, игры, сериалы, книги и музыку.