img image001 image001 image001 image001 image001 image001 image001 image001 image001 image001 image001 image001 image001 image001 image001

Planets Sun Sun Sun
Статистика раздачи
Автор: Снежана | Размер: 5.49 ГБ | Добавлен: 26 июл 2013
Раздают: 243    Качают: 33
Скачать торрент
Скачать торрент
Описание торрента

СообщениеДобавлено: 26 июл 2013 

#77
Год выпуска: 2006
Производство: Россия, Фабула
Жанр: боевик
Продолжительность: 8 ~ 00:44:40
Субтитры: нет

Режиссёр: Рауф Кубаев


В ролях: Александр Дедюшко, Светлана Ходченкова, Владимир Стеклов, Александр Песков, Вадим Андреев, Габриэлла Мариани, Татьяна Лютаева, Марк Рудинштейн, Виталий Альшанский, Владимир Малюгин...


Описание: «Спец» по ликвидациям, работавший на секретные службы в постсоветскую эпоху, решает выйти в отставку. Однако бывшие сослуживцы, взявшиеся за полукриминальный бизнес, не оставляют его в покое, ведь для них его имя служит своего рода, «знаком качества».
И вот реалии жизни складываются не в пользу главного героя — теперь он сам становится мишенью. Албанец понимает, что желание — вернуться к мирной жизни — будет не так просто осуществить…





Качество: DVDRip (2 х DVD9 R5)
Формат: AVI

Видео: 704x432 (16:10), 25.000 fps, XViD ~ 2000 kbps avg, 0.263 bit/pixel
Аудио: 48 kHz, АС3 2 ch, 192 kbps, русский

Раздача от:
Общее
Полное имя : Psevdonim.Albanets.2006.O.DVDRip_[Youtracker]_by_avproh\01.avi
Формат : AVI
Формат/Информация : Audio Video Interleave
Размер файла : 697 Мбайт
Продолжительность : 44 м.
Общий поток : 2202 Кбит/сек
Программа кодирования : VirtualDubMod 1.5.10.3 | www.virtualdub-fr.org || (build 2550/release)
Библиотека кодирования : VirtualDubMod build 2550/release

Видео
Идентификатор : 0
Формат : MPEG-4 Visual
Профиль формата : Advanced Simple@L5
Параметр BVOP формата : 1
Параметр QPel формата : Нет
Параметр GMC формата : Без точки перехода
Параметр матрицы формата : Выборочная
Идентификатор кодека : XVID
Идентификатор кодека/Подсказка : XviD
Продолжительность : 44 м.
Битрейт : 2000 Кбит/сек
Ширина : 704 пикселя
Высота : 432 пикселя
Соотношение сторон : 16:10
Частота кадров : 25,000 кадров/сек
Цветовое пространство : YUV
Субдискретизация насыщенности : 4:2:0
Битовая глубина : 8 бит
Тип развёртки : Прогрессивная
Метод сжатия : С потерями
Бит/(Пиксели*Кадры) : 0.263
Размер потока : 633 Мбайт (91%)
Библиотека кодирования : XviD 65

Аудио
Идентификатор : 1
Формат : AC-3
Формат/Информация : Audio Coding 3
Расширение режима : CM (complete main)
Параметр Endianness формата : Big
Идентификатор кодека : 2000
Продолжительность : 44 м.
Вид битрейта : Постоянный
Битрейт : 192 Кбит/сек
Каналы : 2 канала
Расположение каналов : Front: L R
Частота : 48,0 КГц
Битовая глубина : 16 бит
Метод сжатия : С потерями
Размер потока : 60,8 Мбайт (9%)
Выравнивание : Разделение по промежуткам
Продолжительность промежутка : 40 мс. (1,00 видеокадр)
Время предзагрузки промежутка : 500 мс.






   Похожие торренты   Торрент   Размер 
В этой теме нет новых непрочитанных сообщений. Псевдоним «Албанец» [01-08 из 08] (2006) DVDRip-AVC от Youtracker

108 | 20

5.49 ГБ

В этой теме нет новых непрочитанных сообщений. Псевдоним ''Албанец'' 4 [01-16 из 16] (2012) SATRip

61 | 35

8.72 ГБ

В этой теме нет новых непрочитанных сообщений. Псевдоним Албанец 2 [01-20 из 20] (2008) SATRip

251 | 39

8.4 ГБ

В этой теме нет новых непрочитанных сообщений. Псевдоним Албанец 3 [01-16 из 16] (2010) IPTVRip от Кosmos

170 | 31

7.05 ГБ

В этой теме нет новых непрочитанных сообщений. Псевдоним ''Албанец'' - 4 [01-14] (2012) SATRip от КинозалSAT

30 | 10

7.52 ГБ

В этой теме нет новых непрочитанных сообщений. Оперативный псевдоним [01-12] (2003) DVDRip

583 | 85

8.62 ГБ

В этой теме нет новых непрочитанных сообщений. Псевдоним / Alias (2002) DVDRip от Brazzass | Sub

70 | 21

1.36 ГБ




Вы не можете начинать темы
Вы не можете отвечать на сообщения
Вы не можете редактировать свои сообщения
Вы не можете удалять свои сообщения
Вы не можете добавлять вложения

Перейти:  
Для Мосгорсуда, Роскомнадзора и рекламодателей: mosgorsud-torrent[собачка]yandex.ru
 Вход
ppkBB3cker v.2 © 2008-2014 @ PPK
[ Time : 0.065s | 14 Queries | GZIP : Off ]

Торрент трекер RUTOR.IN, Не можете зайти на rutor.org? Какой новый адрес рутор? Какое зеркало рутор? Не работает rutor.org и зеркала? Тогда наш торрент специально для вас. Rutor.in неофициальное зеркало rutor. В случае если у Вас заблокирован rutor или вдруг Вы не можете на него зайти, то Вы без труда сможете скачать бесплатно и без рекламы последние новинки кино, игр, сериалов и прочего у нас, на Rutor.in. Не нужно использовать прокси, чтобы зайти на рутор, достаточно воспользоваться нашим ресурсом. Все новые фильмы, игры, сериалы, книги и музыка за 2013 и 2014 годы через торрент бесплатно. Скачивайте фильмы в хорошем качестве, игры для пк, xbox, playstation без регистрации. У нас вы найдете новые Зарубежные сериалы и Русские сериалы 2013, 2014, 2015 годов. Оставайтесь с нами, качайте любимые фильмы, игры, сериалы, книги и музыку.