img image001 image001 image001 image001 image001 image001 image001 image001 image001 image001 image001 image001 image001 image001 image001

Planets Sun Sun Sun
Статистика раздачи
Автор: Снежана | Размер: 4.58 ГБ | Добавлен: 26 июл 2013
Раздают: 7    Качают: 4
Скачать торрент
Скачать торрент
Описание торрента

СообщениеДобавлено: 26 июл 2013 

#77

Информация о фильме
Название: Уилфред
Оригинальное название: Wilfred
Год выхода: 2013
Жанр: Черная комедия, ситком
Режиссер: Рэндолл Эйнхорн, Виктор Нелли мл.
В ролях: Элайджа Вуд, Джейсон Гэнн, Фиона Габелманн, Дориан Браун, Крис Клейн, Джерри Бедноб, Жан-Поль Ману, Родни То, Этан Сапли, Чарльз Истен, Э.Дж. Каллахан, Кэри Коулмэн, Эллиа Инглиш, Рэйчел Стерлинг, Эл Сапьенза, Кэтерин Диск, Мэттью Каминский, Тимоти Э. Гудвин

О фильме:
Сюжет строится вокруг молодого человека по имени Райан, который ухаживает за девушкой — хозяйкой пса по кличке Уилфред. Пес и молодой человек не нравятся друг другу с первого взгляда. Дело осложняется тем, что вместо собаки Райан видит человека в собачьем костюме, который с ним разговаривает.

Страна: США
Продолжительность: 6 x ~ 00:22:00
Перевод: Профессиональный двухголосый, Кубик в Кубе

Файл
Кодек: MPEG-4 AVC
Качество: WEB-DL 720p
Видео: ~ 4000 Кбит/с, 1280x718, 23.976 кадр/с
Звук: Русский, английский (AC3, 6 ch, 384 Кбит/с)
Общее
Уникальный идентификатор : 233265128737176276779327422783996384721 (0xAF7D3AC9CB2E54E09CA6960C854555D1)
Полное имя : Wilfred Season 3 720p CasStudio.TVWilfred.s03e01.rus.eng.720p.CasStudio.TV.mkv
Формат : Matroska
Версия формата : Version 4 / Version 2
Размер файла : 779 Мбайт
Продолжительность : 22 м.
Общий поток : 4923 Кбит/сек
Дата кодирования : UTC 2013-06-24 16:02:10
Программа кодирования : mkvmerge v6.0.0 ('Coming Up For Air') built on Jan 20 2013 09:52:00
Библиотека кодирования : libebml v1.3.0 + libmatroska v1.4.0

Видео
Идентификатор : 1
Формат : AVC
Формат/Информация : Advanced Video Codec
Профиль формата : High@L3.1
Параметр CABAC формата : Нет
Параметр ReFrames формата : 2 кадра
Идентификатор кодека : V_MPEG4/ISO/AVC
Продолжительность : 22 м.
Битрейт : 4057 Кбит/сек
Ширина : 1280 пикселей
Высота : 718 пикселей
Соотношение сторон : 16:9
Режим частоты кадров : Постоянный
Частота кадров : 23,976 кадра/сек
Цветовое пространство : YUV
Субдискретизация насыщенности : 4:2:0
Битовая глубина : 8 бит
Тип развёртки : Прогрессивная
Бит/(Пиксели*Кадры) : 0.184
Размер потока : 642 Мбайт (82%)
Default : Да
Forced : Нет
Основные цвета : BT.709
Характеристики трансфера : BT.709
Коэффициенты матрицы : BT.709

Аудио #1
Идентификатор : 2
Формат : AC-3
Формат/Информация : Audio Coding 3
Расширение режима : CM (complete main)
Параметр Endianness формата : Big
Идентификатор кодека : A_AC3
Продолжительность : 22 м.
Вид битрейта : Постоянный
Битрейт : 384 Кбит/сек
Каналы : 6 каналов
Расположение каналов : Front: L C R, Side: L R, LFE
Частота : 48,0 КГц
Битовая глубина : 16 бит
Метод сжатия : С потерями
Размер потока : 60,8 Мбайт (8%)
Язык : Russian
Default : Да
Forced : Нет

Аудио #2
Идентификатор : 3
Формат : AC-3
Формат/Информация : Audio Coding 3
Расширение режима : CM (complete main)
Параметр Endianness формата : Big
Идентификатор кодека : A_AC3
Продолжительность : 22 м.
Вид битрейта : Постоянный
Битрейт : 384 Кбит/сек
Каналы : 6 каналов
Расположение каналов : Front: L C R, Side: L R, LFE
Частота : 48,0 КГц
Битовая глубина : 16 бит
Метод сжатия : С потерями
Размер потока : 60,8 Мбайт (8%)
Язык : English
Default : Нет
Forced : Нет

Текст
Идентификатор : 4
Формат : UTF-8
Идентификатор кодека : S_TEXT/UTF8
Идентификатор кодека/Информация : UTF-8 Plain Text
Язык : English
Default : Нет
Forced : Нет





Релиз от:



   Похожие торренты   Торрент   Размер 
В этой теме нет новых непрочитанных сообщений. Уилфред / Wilfred [03x01-06] (2013) WEB-DL 1080p от CasStudio | Кубик в Кубе

32 | 15

5.56 ГБ

В этой теме нет новых непрочитанных сообщений. Уилфред / Wilfred [03x01-06] (2013) WEB-DLRip от CasStudio | Кубик в Кубе

17 | 14

2.64 ГБ

В этой теме нет новых непрочитанных сообщений. Уилфред / Wilfred [S03] (2013) WEB-DLRip | Кубик в Кубе

23 | 10

5.77 ГБ

В этой теме нет новых непрочитанных сообщений. Уилфред / Wilfred [S02] (2012) WEB-DL 720p | Кубик в Кубе

37 | 9

9.37 ГБ

В этой теме нет новых непрочитанных сообщений. Уилфред / Wilfred [S01] (2011) WEB-DL 720p | Кубик в Кубе

16 | 35

9.38 ГБ

В этой теме нет новых непрочитанных сообщений. Уилфред / Wilfred [04x01-03 из 10] (2014) WEB-DL 720p | Кубик в Кубе

44 | 33

1.79 ГБ

В этой теме нет новых непрочитанных сообщений. Уилфред / Wilfred [04x01-04 из 10] (2014) WEB-DL 720p | Кубик в Кубе

61 | 115

2.47 ГБ




Вы не можете начинать темы
Вы не можете отвечать на сообщения
Вы не можете редактировать свои сообщения
Вы не можете удалять свои сообщения
Вы не можете добавлять вложения

Перейти:  
Для Мосгорсуда, Роскомнадзора и рекламодателей: mosgorsud-torrent[собачка]yandex.ru
 Вход
ppkBB3cker v.2 © 2008-2014 @ PPK
[ Time : 0.039s | 14 Queries | GZIP : Off ]

Торрент трекер RUTOR.IN, Не можете зайти на rutor.org? Какой новый адрес рутор? Какое зеркало рутор? Не работает rutor.org и зеркала? Тогда наш торрент специально для вас. Rutor.in неофициальное зеркало rutor. В случае если у Вас заблокирован rutor или вдруг Вы не можете на него зайти, то Вы без труда сможете скачать бесплатно и без рекламы последние новинки кино, игр, сериалов и прочего у нас, на Rutor.in. Не нужно использовать прокси, чтобы зайти на рутор, достаточно воспользоваться нашим ресурсом. Все новые фильмы, игры, сериалы, книги и музыка за 2013 и 2014 годы через торрент бесплатно. Скачивайте фильмы в хорошем качестве, игры для пк, xbox, playstation без регистрации. У нас вы найдете новые Зарубежные сериалы и Русские сериалы 2013, 2014, 2015 годов. Оставайтесь с нами, качайте любимые фильмы, игры, сериалы, книги и музыку.