img image001 image001 image001 image001 image001 image001 image001 image001 image001 image001 image001 image001 image001 image001 image001

Planets Sun Sun Sun
Статистика раздачи
Автор: Снежана | Размер: 13.15 ГБ | Добавлен: 25 июл 2013
Раздают: 0    Качают: 2
Скачать торрент
Скачать торрент
Описание торрента

СообщениеДобавлено: 25 июл 2013 

#77

Название: Убийство
Оригинальное название: The Killing
Год выпуска: 2013
Жанр: Драма, криминал, детектив
Режиссер: Эдвард Бьянчи, Дэниэл Эттиэс, Фил Абрахам
В ролях: Мирей Инос, Юэль Киннаман, Брент Секстон, Мишель Форбс, Билл Кэмпбелл, Кристин Леман, Эрик Ладин, Джэми Браун, Том Батлер, Кэти Финдлей

Описание: Сериал рассказывает об одном убийстве с трех точек зрения – детективов, приставленных к этому делу, семьи погибшей и подозреваемых. Сюжет также затрагивает местных политиков и их связь с этим делом. Постепенно становится ясно, что здесь нет случайностей, у каждого свой секрет. И хотя персонажи думают, что они продолжают жить дальше, их прошлое еще не оставило их в покое.

Выпущено: США, Канада
Продолжительность: 09 х ~ 00:43:00
Перевод: Aвторский - Юрий Сербин
Субтитры: Английские



Качество: WEB-DL 720p
Формат: MKV
Видео: MPEG4-AVC, 1280x718, ~3800 kbps
Аудио rus: АС3, 6 ch, 384 Кбит/сек
Аудио eng: АС3, 6 ch, 384 Кбит/сек

01. The Jungle / Джунгли
02. That You Fear the Most / Самый Страшный Страх
03. 17
04. Head Shots / Выстрел в голову
05. Scared and Running
06. Eminent Domain
07. Надежда убивает / Hope Kills
08. Попытка / Try
09. Расплата / Reckoning
3x01 - 02.06.2013 - The Jungle / Джунгли
3x02 - 02.06.2013 - That You Fear the Most / Самый Страшный Страх
3x03 - 09.06.2013 - Seventeen
3x04 - 16.06.2013 - Head Shots
3x05 - 23.06.2013 - Scared and Running
3x06 - 30.06.2013 - Eminent Domain
3x07 - 07.07.2013 - Hope Kills
3x08 - 14.07.2013 - Episode 8
3x09 - 21.07.2013 - Episode 9
3x10 - 28.07.2013 - Episode 10
3x11 - 04.08.2013 - Episode 11
3x12 - 04.08.2013 - Episode 12
Общее
Уникальный идентификатор : 225627399098072960642515183457024557454 (0xA9BE41A4B9026F7DF03E71FA5EE3418E)
Полное имя : D:the.killing.s03e01.webdl.720p.rus.eng.novafilm.mkv
Формат : Matroska
Размер файла : 1,40 Гбайт
Продолжительность : 43 м.
Общий поток : 4671 Кбит/сек
Дата кодирования : UTC 2013-06-04 20:16:51
Программа кодирования : mkvmerge v6.1.0 ('Old Devil') built on Mar 2 2013 22:22:31
Библиотека кодирования : libebml v1.3.0 + libmatroska v1.4.0

Видео
Идентификатор : 1
Формат : AVC
Формат/Информация : Advanced Video Codec
Профиль формата : High@L3.1
Параметр CABAC формата : Нет
Параметр ReFrames формата : 2 кадра
Идентификатор кодека : V_MPEG4/ISO/AVC
Продолжительность : 43 м.
Битрейт : 3810 Кбит/сек
Ширина : 1280 пикс.
Высота : 718 пикс.
Соотношение сторон : 16:9
Частота кадров : 23,976 кадр/сек
Цветовое пространство : YUV
Подвыборка цветности : 4:2:0
Битовая глубина : 8 бит
Тип развёртки : Прогрессивная
Бит/(Пиксели*Кадры) : 0.173
Размер потока : 1,15 Гбайт (82%)
Заголовок : The Killing - Season 3, Episode 1:
Язык : English
Основные цвета : BT.709-5, BT.1361, IEC 61966-2-4, SMPTE RP177
Характеристики трансфера : BT.709-5, BT.1361
Коэффициенты матрицы : BT.709-5, BT.1361, IEC 61966-2-4 709, SMPTE RP177

Аудио #1
Идентификатор : 2
Формат : AC-3
Формат/Информация : Audio Coding 3
Расширение режима : CM (complete main)
Идентификатор кодека : A_AC3
Продолжительность : 43 м.
Вид битрейта : Постоянный
Битрейт : 384 Кбит/сек
Каналы : 6 каналов
Расположение каналов : Front: L C R, Side: L R, LFE
Частота : 48,0 КГц
Битовая глубина : 16 бит
Метод сжатия : С потерями
Размер потока : 118 Мбайт (8%)
Заголовок : Dolby Digital 5.1 @ 384 kbps
Язык : Russian

Аудио #2
Идентификатор : 3
Формат : AC-3
Формат/Информация : Audio Coding 3
Расширение режима : CM (complete main)
Идентификатор кодека : A_AC3
Продолжительность : 43 м.
Вид битрейта : Постоянный
Битрейт : 384 Кбит/сек
Каналы : 6 каналов
Расположение каналов : Front: L C R, Side: L R, LFE
Частота : 48,0 КГц
Битовая глубина : 16 бит
Метод сжатия : С потерями
Размер потока : 118 Мбайт (8%)
Заголовок : Dolby Digital 5.1 @ 384 kbps
Язык : English

Текст
Идентификатор : 4
Формат : UTF-8
Идентификатор кодека : S_TEXT/UTF8
Идентификатор кодека/Информация : UTF-8 Plain Text
Язык : English


Релиз от:



   Похожие торренты   Торрент   Размер 
В этой теме нет новых непрочитанных сообщений. Убийство / The Killing [03x01-06 из 12] (2013) WEB-DL 1080p | Ю. Сербин

0 | 2

10.14 ГБ

В этой теме нет новых непрочитанных сообщений. Убийство / The Killing [03x01-09 из 12] (2013) WEB-DLRip | Ю. Сербин

1 | 2

5.19 ГБ

В этой теме нет новых непрочитанных сообщений. Убийство / The Killing [S03] (2013) WEB-DL 720p | Ю. Сербин

1 | 3

17.48 ГБ

В этой теме нет новых непрочитанных сообщений. Убийство / The Killing [S03] (2013) WEB-DLRip | Ю. Сербин

4 | 7

7.08 ГБ

В этой теме нет новых непрочитанных сообщений. Убийство / The Killing [03x01-09 из 12] (2013) WEB-DL 720p | LostFilm

0 | 2

13.05 ГБ

В этой теме нет новых непрочитанных сообщений. Убийство / The Killing [S01] (2011) BDRip 720p | LostFilm, Кубик в Кубе, Сербин

15 | 18

38.96 ГБ

В этой теме нет новых непрочитанных сообщений. Убийство / The Killing [03x01-11 из 12] (2013) WEB-DL 1080p

2 | 19

20.94 ГБ




Вы не можете начинать темы
Вы не можете отвечать на сообщения
Вы не можете редактировать свои сообщения
Вы не можете удалять свои сообщения
Вы не можете добавлять вложения

Перейти:  
Для Мосгорсуда, Роскомнадзора и рекламодателей: mosgorsud-torrent[собачка]yandex.ru
 Вход
ppkBB3cker v.2 © 2008-2014 @ PPK
[ Time : 0.032s | 14 Queries | GZIP : Off ]

Торрент трекер RUTOR.IN, Не можете зайти на rutor.org? Какой новый адрес рутор? Какое зеркало рутор? Не работает rutor.org и зеркала? Тогда наш торрент специально для вас. Rutor.in неофициальное зеркало rutor. В случае если у Вас заблокирован rutor или вдруг Вы не можете на него зайти, то Вы без труда сможете скачать бесплатно и без рекламы последние новинки кино, игр, сериалов и прочего у нас, на Rutor.in. Не нужно использовать прокси, чтобы зайти на рутор, достаточно воспользоваться нашим ресурсом. Все новые фильмы, игры, сериалы, книги и музыка за 2013 и 2014 годы через торрент бесплатно. Скачивайте фильмы в хорошем качестве, игры для пк, xbox, playstation без регистрации. У нас вы найдете новые Зарубежные сериалы и Русские сериалы 2013, 2014, 2015 годов. Оставайтесь с нами, качайте любимые фильмы, игры, сериалы, книги и музыку.