img image001 image001 image001 image001 image001 image001 image001 image001 image001 image001 image001 image001 image001 image001 image001

Planets Sun Sun Sun
Статистика раздачи
Автор: Снежана | Размер: 2.05 ГБ | Добавлен: 12 авг 2013
Раздают: 9    Качают: 4
Скачать торрент
Скачать торрент
Описание торрента

СообщениеДобавлено: 12 авг 2013 

Тимбавати: Мир диких кошек
Timbavati: An Epic Cat Story



#77

Год выпуска: 2011-2012
Страна: США
Жанр: Документальный
Продолжительность: 135 мин. (3 серии по 45 мин.)
Перевод: Профессиональный (дублированный) | Игорь Тарадайкин / АРК·ТВ
Русские субтитры: нет


Режиссер: Стефания Мюллер / Stefania Muller

Описание:
01. Царский прайд / The King's Pride
Доминирующий лев является главой прайда, львицы при этом охотятся, поддерживают социальную структуру и растят детенышей.

02. Нежные убийцы / Tender Killers
Леопарды - заботливые родители и стараются привить детенышам умение охотиться и избегать хищников, - но опасность поджидает их на каждом шагу.

03. Кровные узы / Blood Ties
Эта программа следит за жизнью семейных групп льва, дикой собаки и гиены, обитающих в национальном парке Крюгера, сравнивая структуру их стай.


Автор рипа: Leo.pard
Исходник: HDTV 1080i Спасибо LeXa 84!


Kачество: HDTVRip
Формат: AVI
Видео: XviD, 720x400 (16:9), ~ 1972 Kbps, 25 fps
Аудио: MP2, 192 Kbps, 48 kHz, 2 channels

Сэмпл: http://multi-up.com/888023

01. Царский прайд / The King's Pride
General
Complete name : E:Timbavati.Mir.dikih.koshek.2011-2012.HDTVRipTimbavati.Mir.dikih.koshek.E01.Carskij.prajd.2011.HDTVRip.avi
Format : AVI
Format/Info : Audio Video Interleave
File size : 699 MiB
Duration : 44mn 59s
Overall bit rate : 2 173 Kbps
Writing application : VirtualDubMod 1.5.10.3 | www.virtualdub-fr.org || (build 2550/release)
Writing library : VirtualDubMod build 2550/release

Video
ID : 0
Format : MPEG-4 Visual
Format profile : Advanced Simple@L5
Format settings, BVOP : 1
Format settings, QPel : No
Format settings, GMC : No warppoints
Format settings, Matrix : Custom
Codec ID : XVID
Codec ID/Hint : XviD
Duration : 44mn 59s
Bit rate : 1 972 Kbps
Width : 720 pixels
Height : 400 pixels
Display aspect ratio : 16:9
Frame rate : 25.000 fps
Color space : YUV
Chroma subsampling : 4:2:0
Bit depth : 8 bits
Scan type : Progressive
Compression mode : Lossy
Bits/(Pixel*Frame) : 0.274
Stream size : 634 MiB (91%)
Writing library : XviD 73

Audio
ID : 1
Format : MPEG Audio
Format version : Version 1
Format profile : Layer 2
Codec ID : 50
Duration : 44mn 59s
Bit rate mode : Constant
Bit rate : 192 Kbps
Channel(s) : 2 channels
Sampling rate : 48.0 KHz
Compression mode : Lossy
Stream size : 61.8 MiB (9%)
Alignment : Aligned on interleaves
Interleave, duration : 40 ms (1.00 video frame)
Interleave, preload duration : 504 ms

02. Нежные убийцы / Tender Killers
General
Complete name : E:Timbavati.Mir.dikih.koshek.2011-2012.HDTVRipTimbavati.Mir.dikih.koshek.E02.Nezhnye.ubijcy.2011.HDTVRip.avi
Format : AVI
Format/Info : Audio Video Interleave
File size : 699 MiB
Duration : 45mn 0s
Overall bit rate : 2 172 Kbps
Writing application : VirtualDubMod 1.5.10.3 | www.virtualdub-fr.org || (build 2550/release)
Writing library : VirtualDubMod build 2550/release

Video
ID : 0
Format : MPEG-4 Visual
Format profile : Advanced Simple@L5
Format settings, BVOP : 1
Format settings, QPel : No
Format settings, GMC : No warppoints
Format settings, Matrix : Custom
Codec ID : XVID
Codec ID/Hint : XviD
Duration : 45mn 0s
Bit rate : 1 971 Kbps
Width : 720 pixels
Height : 400 pixels
Display aspect ratio : 16:9
Frame rate : 25.000 fps
Color space : YUV
Chroma subsampling : 4:2:0
Bit depth : 8 bits
Scan type : Progressive
Compression mode : Lossy
Bits/(Pixel*Frame) : 0.274
Stream size : 634 MiB (91%)
Writing library : XviD 73

Audio
ID : 1
Format : MPEG Audio
Format version : Version 1
Format profile : Layer 2
Codec ID : 50
Duration : 45mn 0s
Bit rate mode : Constant
Bit rate : 192 Kbps
Channel(s) : 2 channels
Sampling rate : 48.0 KHz
Compression mode : Lossy
Stream size : 61.8 MiB (9%)
Alignment : Aligned on interleaves
Interleave, duration : 40 ms (1.00 video frame)
Interleave, preload duration : 504 ms

03. Кровные узы / Blood Ties
General
Complete name : E:Timbavati.Mir.dikih.koshek.2011-2012.HDTVRipTimbavati.Mir.dikih.koshek.E03.Krovnye.uzy.2012.HDTVRip.avi
Format : AVI
Format/Info : Audio Video Interleave
File size : 699 MiB
Duration : 44mn 59s
Overall bit rate : 2 174 Kbps
Writing application : VirtualDubMod 1.5.10.3 | www.virtualdub-fr.org || (build 2550/release)
Writing library : VirtualDubMod build 2550/release

Video
ID : 0
Format : MPEG-4 Visual
Format profile : Advanced Simple@L5
Format settings, BVOP : 1
Format settings, QPel : No
Format settings, GMC : No warppoints
Format settings, Matrix : Custom
Codec ID : XVID
Codec ID/Hint : XviD
Duration : 44mn 59s
Bit rate : 1 972 Kbps
Width : 720 pixels
Height : 400 pixels
Display aspect ratio : 16:9
Frame rate : 25.000 fps
Color space : YUV
Chroma subsampling : 4:2:0
Bit depth : 8 bits
Scan type : Progressive
Compression mode : Lossy
Bits/(Pixel*Frame) : 0.274
Stream size : 635 MiB (91%)
Writing library : XviD 73

Audio
ID : 1
Format : MPEG Audio
Format version : Version 1
Format profile : Layer 2
Codec ID : 50
Duration : 44mn 59s
Bit rate mode : Constant
Bit rate : 192 Kbps
Channel(s) : 2 channels
Sampling rate : 48.0 KHz
Compression mode : Lossy
Stream size : 61.8 MiB (9%)
Alignment : Aligned on interleaves
Interleave, duration : 40 ms (1.00 video frame)
Interleave, preload duration : 504 ms






   Похожие торренты   Торрент   Размер 
В этой теме нет новых непрочитанных сообщений. Nat Geo Wild: Тимбавати: Мир диких кошек / Timbavati: An Epic Cat Story [01-03 из 3] (2011-2012) HDTVRip-AVC от Leo.pard | D

23 | 5

2.05 ГБ

В этой теме нет новых непрочитанных сообщений. Nat Geo Wild: Дикая сторона кошек / Wild Side of Cats (2012) HDTVRip-AVC от Leo.pard | P1

4 | 2

700.55 МБ

В этой теме нет новых непрочитанных сообщений. Nat Geo Wild: Дикая сторона кошек / Wild Side of Cats (2012) HDTVRip от Leo.pard | P1

2 | 2

700.43 МБ

В этой теме нет новых непрочитанных сообщений. Nat Geo Wild: Атака больших кошек / Attack of the Big Cats (2012) HDTVRip-AVC от Leo.pard | D

16 | 2

699.64 МБ

В этой теме нет новых непрочитанных сообщений. Nat Geo Wild: Атака больших кошек / Attack of the Big Cats (2012) HDTVRip от Leo.pard | D

21 | 3

699.51 МБ

В этой теме нет новых непрочитанных сообщений. Nat Geo Wild: Бетти Уайт: защитница больших кошек / Betty White goes wild! (2013) HDTVRip от Leo.pard | P1

66 | 11

700.3 МБ

В этой теме нет новых непрочитанных сообщений. Nat Geo Wild: Бетти Уайт: защитница больших кошек / Betty White goes wild! (2013) HDTVRip-AVC от Leo.pard | P1

4 | 5

700.45 МБ




Вы не можете начинать темы
Вы не можете отвечать на сообщения
Вы не можете редактировать свои сообщения
Вы не можете удалять свои сообщения
Вы не можете добавлять вложения

Перейти:  
Для Мосгорсуда, Роскомнадзора и рекламодателей: mosgorsud-torrent[собачка]yandex.ru
 Вход
ppkBB3cker v.2 © 2008-2014 @ PPK
[ Time : 0.032s | 14 Queries | GZIP : Off ]

Торрент трекер RUTOR.IN, Не можете зайти на rutor.org? Какой новый адрес рутор? Какое зеркало рутор? Не работает rutor.org и зеркала? Тогда наш торрент специально для вас. Rutor.in неофициальное зеркало rutor. В случае если у Вас заблокирован rutor или вдруг Вы не можете на него зайти, то Вы без труда сможете скачать бесплатно и без рекламы последние новинки кино, игр, сериалов и прочего у нас, на Rutor.in. Не нужно использовать прокси, чтобы зайти на рутор, достаточно воспользоваться нашим ресурсом. Все новые фильмы, игры, сериалы, книги и музыка за 2013 и 2014 годы через торрент бесплатно. Скачивайте фильмы в хорошем качестве, игры для пк, xbox, playstation без регистрации. У нас вы найдете новые Зарубежные сериалы и Русские сериалы 2013, 2014, 2015 годов. Оставайтесь с нами, качайте любимые фильмы, игры, сериалы, книги и музыку.