img image001 image001 image001 image001 image001 image001 image001 image001 image001 image001 image001 image001 image001 image001 image001

Planets Sun Sun Sun
Статистика раздачи
Автор: Снежана | Размер: 652.46 МБ | Добавлен: 12 авг 2013
Раздают: 14    Качают: 3
Скачать торрент
Скачать торрент
Описание торрента

СообщениеДобавлено: 12 авг 2013 


Инфомация о фильме
Название: BBC: Плотоядные. Крокодил
Оригинальное название: BBC. Crocodile
Год выхода: 2005
Жанр: Документальный
Режиссер: Майк Бинон
О фильме
Каждый фильм серии "Плотоядные" - маленький шедевр, сплав опыта и новаторства. Операторская работа с использованием революционных технологий киносъемки, основанных на последних достижениях науки и техники, отмечена многими призами. Герои же - настоящие "звезды" животного мира Земли - приоткрывают тайны своей жизни, до сих пор неизвестные широкому зрителю...
Крокодил - единственная из больших рептилий, выжившая со времен динозавров. Возможно, крокодилы и являются "пережитками прошлого", однако до сих пор они остаются самыми ловкими и жестокими водными охотниками. Только теперь при помощи скрупулезного исследования их повадок и среды обитания, днем и ночью, под водой и на суше, мы можем оценить, насколько они сложны и высокоразвиты. С точки зрения способностей к выживанию крокодил имеет все основания "улыбаться".

Страна: Великобритания.
Студия: BBC Worldwide Ltd.
Продолжительность: 00:48:10
Перевод: Профессиональный (одноголосый)
Файл
Формат: MKV
Качество: DVDRip-AVC
Видео: MPEG4 AVC, 768 x 576, 25.000 fps, 1700 - 1894 Кбит/с
Звук: AC-3, 2 ch, 192 Кбит/с
Субтитры: Нет

General
Unique ID : 247093556702145568657083580928043965072 (0xB9E47CED07830C5F96625FF131B2DA90)
Complete name : D:DownloadsKrokodil.2005.x264.DVDRip.(AVC).by.HD-NET.mkv
Format : Matroska
Format version : Version 2
File size : 652 MiB
Duration : 48mn 10s
Overall bit rate : 1 894 Kbps
Encoded date : UTC 2013-07-17 05:03:04
Writing application : mkvmerge v6.1.0 ('Old Devil') built on Mar 4 2013 09:10:42
Writing library : libebml v1.3.0 + libmatroska v1.4.0
Video
ID : 1
Format : AVC
Format/Info : Advanced Video Codec
Format profile : High@L4.1
Format settings, CABAC : Yes
Format settings, ReFrames : 5 frames
Codec ID : V_MPEG4/ISO/AVC
Duration : 48mn 10s
Bit rate : 1 700 Kbps
Width : 768 pixels
Height : 576 pixels
Display aspect ratio : 4:3
Frame rate mode : Constant
Frame rate : 25.000 fps
Color space : YUV
Chroma subsampling : 4:2:0
Bit depth : 8 bits
Scan type : Progressive
Bits/(Pixel*Frame) : 0.154
Stream size : 573 MiB (88%)
Writing library : x264 core 130 r2273 b3065e6
Encoding settings : cabac=1 / ref=5 / deblock=1:-2:-2 / analyse=0x3:0x111 / me=umh / subme=9 / psy=1 / psy_rd=0.00:0.10 / mixed_ref=1 / me_range=32 / chroma_me=1 / trellis=2 / 8x8dct=1 / cqm=0 / deadzone=21,11 / fast_pskip=0 / chroma_qp_offset=-1 / threads=6 / lookahead_threads=1 / sliced_threads=0 / nr=0 / decimate=1 / interlaced=0 / bluray_compat=0 / constrained_intra=0 / bframes=5 / b_pyramid=2 / b_adapt=0 / b_bias=0 / direct=1 / weightb=1 / open_gop=0 / weightp=2 / keyint=250 / keyint_min=25 / scenecut=40 / intra_refresh=0 / rc_lookahead=50 / rc=2pass / mbtree=1 / bitrate=1700 / ratetol=1.0 / qcomp=0.60 / qpmin=0 / qpmax=69 / qpstep=4 / cplxblur=20.0 / qblur=0.5 / ip_ratio=1.40 / aq=1:1.00
Default : Yes
Forced : No
Audio
ID : 2
Format : AC-3
Format/Info : Audio Coding 3
Mode extension : CM (complete main)
Format settings, Endianness : Big
Codec ID : A_AC3
Duration : 48mn 10s
Bit rate mode : Constant
Bit rate : 192 Kbps
Channel(s) : 2 channels
Channel positions : Front: L R
Sampling rate : 48.0 KHz
Bit depth : 16 bits
Compression mode : Lossy
Stream size : 66.2 MiB (10%)
Default : Yes
Forced : No



Релиз от: &



   Похожие торренты   Торрент   Размер 
В этой теме нет новых непрочитанных сообщений. Крокодил / Ag-o / Crocodile (1996) DVDRip

9 | 1

1.36 ГБ

В этой теме нет новых непрочитанных сообщений. Крокодил / Crocodile (2000) DVDRip

80 | 3

746.17 МБ

В этой теме нет новых непрочитанных сообщений. Крокодил Данди 2 / Crocodile Dundee II (1988) DVDRip-AVC

38 | 7

1.36 ГБ

В этой теме нет новых непрочитанных сообщений. Крокодил-убийца / Killer Crocodile (1989) DVDRip | P, L1

45 | 3

1.46 ГБ

В этой теме нет новых непрочитанных сообщений. Крокодил Данди / Crocodile Dundee (1986) DVDRip

35 | 3

1.48 ГБ

В этой теме нет новых непрочитанных сообщений. Крокодил Данди 2 / Crocodile Dundee 2 (1988) DVDRip

26 | 9

1.47 ГБ

В этой теме нет новых непрочитанных сообщений. Крокодил Данди 2 / Crocodile Dundee II (1988) DVDRip от PlanetaUA

6 | 3

1.27 ГБ




Вы не можете начинать темы
Вы не можете отвечать на сообщения
Вы не можете редактировать свои сообщения
Вы не можете удалять свои сообщения
Вы не можете добавлять вложения

Перейти:  
Для Мосгорсуда, Роскомнадзора и рекламодателей: mosgorsud-torrent[собачка]yandex.ru
 Вход
ppkBB3cker v.2 © 2008-2014 @ PPK
[ Time : 0.040s | 16 Queries | GZIP : Off ]

Торрент трекер RUTOR.IN, Не можете зайти на rutor.org? Какой новый адрес рутор? Какое зеркало рутор? Не работает rutor.org и зеркала? Тогда наш торрент специально для вас. Rutor.in неофициальное зеркало rutor. В случае если у Вас заблокирован rutor или вдруг Вы не можете на него зайти, то Вы без труда сможете скачать бесплатно и без рекламы последние новинки кино, игр, сериалов и прочего у нас, на Rutor.in. Не нужно использовать прокси, чтобы зайти на рутор, достаточно воспользоваться нашим ресурсом. Все новые фильмы, игры, сериалы, книги и музыка за 2013 и 2014 годы через торрент бесплатно. Скачивайте фильмы в хорошем качестве, игры для пк, xbox, playstation без регистрации. У нас вы найдете новые Зарубежные сериалы и Русские сериалы 2013, 2014, 2015 годов. Оставайтесь с нами, качайте любимые фильмы, игры, сериалы, книги и музыку.
cron