img image001 image001 image001 image001 image001 image001 image001 image001 image001 image001 image001 image001 image001 image001 image001

Planets Sun Sun Sun
Статистика раздачи
Автор: Снежана | Размер: 671.34 МБ | Добавлен: 12 авг 2013
Раздают: 26    Качают: 6
Скачать торрент
Скачать торрент
Описание торрента

СообщениеДобавлено: 12 авг 2013 


Инфомация о фильме
Название: BBC: Жизнь животных: Волк
Оригинальное название: BBC: The Wildlife Specials: Wolf
Год выхода: 1997
Жанр: Научно-популярный
О фильме
Волк - плотоядный хищник семейства собачьих. Он настолько силен, что может успешно охотиться на добычу , вес которой превышает его собственный в 10 раз. Отмечены случаи нападения сибирских волков на верховых наездников и людей в санях, запряженных лошадью. На охоте волк может бежать со скоростью 30 км/ч в течении нескольких часов, постепенно утомляя даже самую быструю жертву. Однако, безжалостное истребление волков человеком привело к тому, что ореол обитания этих хищников сохранился в основном в удаленных и труднодоступных местностях, что чрезвычайно затрудняет съемки волка в естественных условиях.
Страна: Великобритания.
Студия: BBC Worldwide Ltd.
Продолжительность: 00:49:35
Перевод: Профессиональный(одноголосый)
Файл
Формат: MKV
Качество: DVDRip-AVC
Видео: MPEG4 AVC, 768 x 576, 25.000 fps, 1700 - 1893 Кбит/с
Звук: AC-3, 2 ch, 192 Кбит/с
Субтитры: Нет

General
Unique ID : 171106988233623300261764516653213082523 (0x80BA01DA0AB8386888F0987FF716E39B)
Complete name : D:DownloadsWolf.1997.x264.DVDRip.(AVC).by.HD-NET.mkv
Format : Matroska
Format version : Version 2
File size : 671 MiB
Duration : 49mn 35s
Overall bit rate : 1 893 Kbps
Encoded date : UTC 2013-07-21 06:18:41
Writing application : mkvmerge v6.1.0 ('Old Devil') built on Mar 4 2013 09:10:42
Writing library : libebml v1.3.0 + libmatroska v1.4.0
Video
ID : 1
Format : AVC
Format/Info : Advanced Video Codec
Format profile : High@L4.1
Format settings, CABAC : Yes
Format settings, ReFrames : 5 frames
Codec ID : V_MPEG4/ISO/AVC
Duration : 49mn 35s
Bit rate : 1 700 Kbps
Width : 768 pixels
Height : 576 pixels
Display aspect ratio : 4:3
Frame rate mode : Constant
Frame rate : 25.000 fps
Color space : YUV
Chroma subsampling : 4:2:0
Bit depth : 8 bits
Scan type : Progressive
Bits/(Pixel*Frame) : 0.154
Stream size : 590 MiB (88%)
Writing library : x264 core 130 r2273 b3065e6
Encoding settings : cabac=1 / ref=5 / deblock=1:-2:-2 / analyse=0x3:0x111 / me=umh / subme=9 / psy=1 / psy_rd=0.00:0.10 / mixed_ref=1 / me_range=32 / chroma_me=1 / trellis=2 / 8x8dct=1 / cqm=0 / deadzone=21,11 / fast_pskip=0 / chroma_qp_offset=-1 / threads=6 / lookahead_threads=1 / sliced_threads=0 / nr=0 / decimate=1 / interlaced=0 / bluray_compat=0 / constrained_intra=0 / bframes=5 / b_pyramid=2 / b_adapt=0 / b_bias=0 / direct=1 / weightb=1 / open_gop=0 / weightp=2 / keyint=250 / keyint_min=25 / scenecut=40 / intra_refresh=0 / rc_lookahead=50 / rc=2pass / mbtree=1 / bitrate=1700 / ratetol=1.0 / qcomp=0.60 / qpmin=0 / qpmax=69 / qpstep=4 / cplxblur=20.0 / qblur=0.5 / ip_ratio=1.40 / aq=1:1.00
Default : Yes
Forced : No
Audio
ID : 2
Format : AC-3
Format/Info : Audio Coding 3
Mode extension : CM (complete main)
Format settings, Endianness : Big
Codec ID : A_AC3
Duration : 49mn 35s
Bit rate mode : Constant
Bit rate : 192 Kbps
Channel(s) : 2 channels
Channel positions : Front: L R
Sampling rate : 48.0 KHz
Bit depth : 16 bits
Compression mode : Lossy
Stream size : 68.1 MiB (10%)
Default : Yes
Forced : No



Релиз от: &



   Похожие торренты   Торрент   Размер 
В этой теме нет новых непрочитанных сообщений. BBC: Жизнь животных: Волк / BBC: The Wildlife Specials: Wolf (1997) DVDRip от Generalfilm

5 | 2

700.56 МБ

В этой теме нет новых непрочитанных сообщений. BBC: Жизнь животных - Плотоядные / BBC: The Wildlife Specials [01-08 из 08] (1997-2003) DVDRip-AVC от -=HD-NET=-

5 | 3

5.3 ГБ

В этой теме нет новых непрочитанных сообщений. BBC: Жизнь животных - Плотоядные / BBC: The Wildlife Specials [01-07 из 14] (1997-2003) DVDRip от -=HD-NET=-

130 | 57

4.11 ГБ

В этой теме нет новых непрочитанных сообщений. BBC: Жизнь животных - Плотоядные (8 фильмов из 8) / BBC: The Wildlife Specials (1997-2003) DVDRip - BestVideo

22 | 7

5.47 ГБ

В этой теме нет новых непрочитанных сообщений. BBC Жизнь животных: Леопард / BBC The Wildlife Specials: Leopard (1999) DVDRip-AVC от -=HD-NET=-

24 | 8

628.53 МБ

В этой теме нет новых непрочитанных сообщений. Последний волк / Волк / Majimak Neukdae / Wolf returns / The Last Wolf (2004) DVDRip | L1

4 | 1

1.46 ГБ

В этой теме нет новых непрочитанных сообщений. Волк / Wolf (1994) DVDRip

11 | 41

1.5 ГБ




Вы не можете начинать темы
Вы не можете отвечать на сообщения
Вы не можете редактировать свои сообщения
Вы не можете удалять свои сообщения
Вы не можете добавлять вложения

Перейти:  
Для Мосгорсуда, Роскомнадзора и рекламодателей: mosgorsud-torrent[собачка]yandex.ru
 Вход
ppkBB3cker v.2 © 2008-2014 @ PPK
[ Time : 0.020s | 16 Queries | GZIP : On ]

Торрент трекер RUTOR.IN, Не можете зайти на rutor.org? Какой новый адрес рутор? Какое зеркало рутор? Не работает rutor.org и зеркала? Тогда наш торрент специально для вас. Rutor.in неофициальное зеркало rutor. В случае если у Вас заблокирован rutor или вдруг Вы не можете на него зайти, то Вы без труда сможете скачать бесплатно и без рекламы последние новинки кино, игр, сериалов и прочего у нас, на Rutor.in. Не нужно использовать прокси, чтобы зайти на рутор, достаточно воспользоваться нашим ресурсом. Все новые фильмы, игры, сериалы, книги и музыка за 2013 и 2014 годы через торрент бесплатно. Скачивайте фильмы в хорошем качестве, игры для пк, xbox, playstation без регистрации. У нас вы найдете новые Зарубежные сериалы и Русские сериалы 2013, 2014, 2015 годов. Оставайтесь с нами, качайте любимые фильмы, игры, сериалы, книги и музыку.