img image001 image001 image001 image001 image001 image001 image001 image001 image001 image001 image001 image001 image001 image001 image001

Planets Sun Sun Sun
Статистика раздачи
Автор: Снежана | Размер: 10.35 ГБ | Добавлен: 12 авг 2013
Раздают: 41    Качают: 4
Скачать торрент
Скачать торрент
Описание торрента

СообщениеДобавлено: 12 авг 2013 

#77

Информация о фильме
Название: Город звука
Оригинальное название: Sound City
Год выхода: 2013
Жанр: Документальный, музыкальный
Режиссер: Дэвид Грол
В ролях: Винни Эппис, Брайан Белл, Фрэнк Блэк, Линдси Бакинхем, Майк Кэмпбелл, Тим Коммерфорд, Кевин Кронин, Риверс Куомо, Уоррен Демартини, Мик Флитвуд, Джон Фогерти, Нил Джиральдо, Кристофер Аллен Госс

О фильме:
Документальный фильм Дейва Грола об истории лос-анджелесской студии Sound City. Идея снять фильм пришла Гролу в 2011-м, после того, как в Ван Нойсе, штат Калифорния, закрылась студия Sound City. Он купил на распродаже оборудования студии пульт Neve, на котором записывались Metallica, Nine Inch Nails, Guns N’ Roses, Rage Against the Machine и многие другие легендарные коллективы (культовый альбом Nevermind группы Nirvana - в их числе). Свои воспоминания о Sound City в документальном фильме рассказывают Том Петти, Трент Резнор, Нил Янг, Ларс Ульрих (Metallica), Джон Фогерти, Джош Омм (Queens Of The Stone Age), Линдси Бакингем и Мик Флитвуд (Fleetwood Мас), Фрэнк Блэк, продюсеры Батч Виг и Рик Рубин и многие другие рок-герои. «Это фильм о правде, о ремесле и о целостности рок-н-ролла», - написал Грол в пресс-релизе, разосланном журналистам студией Roswell, на которой снималась картина. Фильм был представлен 18 января на фестивале "Сандэнс", там же состоялся дебют супергруппы Sound City Players, состоящей из героев картины Грола.

Страна: США
Продолжительность: 01:47:16
Перевод: Профессиональный двухголосый

Переведено и озвучено студией «Омикрон» специально для HDCLUB.

Задействовано 2 актеров.
Русская дорожка получена наложением чистого голоса.
Перевод и озвучивание осуществлено в рамках сервиса "Озвучивание". Спонсоры:
MItrichB, Мизантроп, asound, ARTYq, Goodsound, Kacok_321, Slimka, Kator, sns59, Cheetah, veronika93, aprikot, gelom, Alex_Cabbage

Файл
Кодек: MPEG-4 AVC
Качество: BDRip 1080p
Видео: 9574 Кбит/с, 1920x1080, 23.976 кадра/с
Звук: Русский, английский (AC3, 6 ch, 640 Кбит/с), русский, английский (DTS, 6 ch, 1510 Кбит/с)
Субтитры: Русские, голландский, французский, немецкий, итальянский, японский, португальский, испанский, шведский
Общее
Уникальный идентификатор : 194470282698848122692035729078458987323 (0x924D9D33F971A66CB0A7D9114843333B)
Полное имя : Sound.City.2013.1080p.BluRay.Rus.Eng.mkv
Формат : Matroska
Версия формата : Version 4 / Version 2
Размер файла : 10,4 Гбайт
Продолжительность : 1 ч. 47 м.
Общий поток : 13,8 Мбит/сек
Название фильма : Created by filin1984 for Кинозал.ТВ
Дата кодирования : UTC 2013-07-28 20:25:04
Программа кодирования : mkvmerge v6.3.0 ('You can't stop me!') built on Jun 28 2013 20:09:41
Библиотека кодирования : libebml v1.3.0 + libmatroska v1.4.0

Видео
Идентификатор : 1
Формат : AVC
Формат/Информация : Advanced Video Codec
Профиль формата : High@L4.1
Параметр CABAC формата : Да
Параметр ReFrames формата : 4 кадра
Идентификатор кодека : V_MPEG4/ISO/AVC
Продолжительность : 1 ч. 47 м.
Битрейт : 9574 Кбит/сек
Ширина : 1920 пикселей
Высота : 1080 пикселей
Соотношение сторон : 16:9
Режим частоты кадров : Постоянный
Частота кадров : 23,976 кадра/сек
Цветовое пространство : YUV
Субдискретизация насыщенности : 4:2:0
Битовая глубина : 8 бит
Тип развёртки : Прогрессивная
Бит/(Пиксели*Кадры) : 0.193
Размер потока : 6,93 Гбайт (67%)
Заголовок : Sound.City.2013.LIMITED.1080p.BluRay.DD5.1.x264-PublicHD
Библиотека кодирования : x264 core 130 r2273 b3065e6
Настройки программы : cabac=1 / ref=4 / deblock=1:-3:-3 / analyse=0x3:0x113 / me=umh / subme=7 / psy=1 / psy_rd=1.00:0.00 / mixed_ref=1 / me_range=16 / chroma_me=1 / trellis=1 / 8x8dct=1 / cqm=0 / deadzone=21,11 / fast_pskip=1 / chroma_qp_offset=-2 / threads=18 / lookahead_threads=3 / sliced_threads=0 / nr=0 / decimate=1 / interlaced=0 / bluray_compat=0 / constrained_intra=0 / bframes=3 / b_pyramid=2 / b_adapt=1 / b_bias=0 / direct=3 / weightb=1 / open_gop=0 / weightp=2 / keyint=240 / keyint_min=23 / scenecut=40 / intra_refresh=0 / rc_lookahead=50 / rc=abr / mbtree=1 / bitrate=9574 / ratetol=1.0 / qcomp=0.60 / qpmin=0 / qpmax=69 / qpstep=4 / ip_ratio=1.40 / aq=1:1.00
Язык : English
Default : Да
Forced : Нет

Аудио #1
Идентификатор : 2
Формат : AC-3
Формат/Информация : Audio Coding 3
Расширение режима : CM (complete main)
Параметр Endianness формата : Big
Идентификатор кодека : A_AC3
Продолжительность : 1 ч. 47 м.
Вид битрейта : Постоянный
Битрейт : 640 Кбит/сек
Каналы : 6 каналов
Расположение каналов : Front: L C R, Side: L R, LFE
Частота : 48,0 КГц
Битовая глубина : 16 бит
Метод сжатия : С потерями
Размер потока : 491 Мбайт (5%)
Заголовок : DVO
Язык : Russian
Default : Да
Forced : Нет

Аудио #2
Идентификатор : 3
Формат : DTS
Формат/Информация : Digital Theater Systems
Режим : 16
Параметр Endianness формата : Big
Идентификатор кодека : A_DTS
Продолжительность : 1 ч. 47 м.
Вид битрейта : Постоянный
Битрейт : 1509 Кбит/сек
Каналы : 6 каналов
Расположение каналов : Front: L C R, Side: L R, LFE
Частота : 48,0 КГц
Битовая глубина : 24 бит
Метод сжатия : С потерями
Размер потока : 1,13 Гбайт (11%)
Заголовок : DVO
Язык : Russian
Default : Нет
Forced : Нет

Аудио #3
Идентификатор : 4
Формат : AC-3
Формат/Информация : Audio Coding 3
Расширение режима : CM (complete main)
Параметр Endianness формата : Big
Идентификатор кодека : A_AC3
Продолжительность : 1 ч. 47 м.
Вид битрейта : Постоянный
Битрейт : 640 Кбит/сек
Каналы : 6 каналов
Расположение каналов : Front: L C R, Side: L R, LFE
Частота : 48,0 КГц
Битовая глубина : 16 бит
Метод сжатия : С потерями
Размер потока : 491 Мбайт (5%)
Язык : English
Default : Нет
Forced : Нет

Аудио #4
Идентификатор : 5
Формат : DTS
Формат/Информация : Digital Theater Systems
Режим : 16
Параметр Endianness формата : Big
Идентификатор кодека : A_DTS
Продолжительность : 1 ч. 47 м.
Вид битрейта : Постоянный
Битрейт : 1509 Кбит/сек
Каналы : 6 каналов
Расположение каналов : Front: L C R, Side: L R, LFE
Частота : 48,0 КГц
Битовая глубина : 24 бит
Метод сжатия : С потерями
Размер потока : 1,13 Гбайт (11%)
Язык : English
Default : Нет
Forced : Нет

Текст #1
Идентификатор : 6
Формат : VobSub
Режим смешивания : zlib
Идентификатор кодека : S_VOBSUB
Идентификатор кодека/Информация : The same subtitle format used on DVDs
Язык : Dutch
Default : Нет
Forced : Нет

Текст #2
Идентификатор : 7
Формат : VobSub
Режим смешивания : zlib
Идентификатор кодека : S_VOBSUB
Идентификатор кодека/Информация : The same subtitle format used on DVDs
Язык : French
Default : Нет
Forced : Нет

Текст #3
Идентификатор : 8
Формат : VobSub
Режим смешивания : zlib
Идентификатор кодека : S_VOBSUB
Идентификатор кодека/Информация : The same subtitle format used on DVDs
Язык : German
Default : Нет
Forced : Нет

Текст #4
Идентификатор : 9
Формат : VobSub
Режим смешивания : zlib
Идентификатор кодека : S_VOBSUB
Идентификатор кодека/Информация : The same subtitle format used on DVDs
Язык : Italian
Default : Нет
Forced : Нет

Текст #5
Идентификатор : 10
Формат : VobSub
Режим смешивания : zlib
Идентификатор кодека : S_VOBSUB
Идентификатор кодека/Информация : The same subtitle format used on DVDs
Язык : Japanese
Default : Нет
Forced : Нет

Текст #6
Идентификатор : 11
Формат : VobSub
Режим смешивания : zlib
Идентификатор кодека : S_VOBSUB
Идентификатор кодека/Информация : The same subtitle format used on DVDs
Язык : Portuguese
Default : Нет
Forced : Нет

Текст #7
Идентификатор : 12
Формат : VobSub
Режим смешивания : zlib
Идентификатор кодека : S_VOBSUB
Идентификатор кодека/Информация : The same subtitle format used on DVDs
Язык : Spanish
Default : Нет
Forced : Нет

Текст #8
Идентификатор : 13
Формат : VobSub
Режим смешивания : zlib
Идентификатор кодека : S_VOBSUB
Идентификатор кодека/Информация : The same subtitle format used on DVDs
Язык : Swedish
Default : Нет
Forced : Нет

Текст #9
Идентификатор : 14
Формат : UTF-8
Идентификатор кодека : S_TEXT/UTF8
Идентификатор кодека/Информация : UTF-8 Plain Text
Заголовок : force
Язык : Russian
Default : Да
Forced : Нет

Меню
00:00:00.000 : en:00:00:00.000
00:04:48.330 : en:00:04:48.330
00:09:14.220 : en:00:09:14.220
00:15:33.349 : en:00:15:33.349
00:24:50.155 : en:00:24:50.155
00:33:03.773 : en:00:33:03.773
00:40:06.946 : en:00:40:06.946
00:49:17.788 : en:00:49:17.788
00:55:27.199 : en:00:55:27.199
01:01:39.112 : en:01:01:39.112
01:08:25.310 : en:01:08:25.310
01:15:10.965 : en:01:15:10.965
01:23:43.101 : en:01:23:43.101
01:29:08.802 : en:01:29:08.802
01:39:52.403 : en:01:39:52.403






   Похожие торренты   Торрент   Размер 
В этой теме нет новых непрочитанных сообщений. Город Звука / Sound City (2013) BDRip 720p | A

32 | 2

1.44 ГБ

В этой теме нет новых непрочитанных сообщений. Город звука / Sound City (2013) HDRip | P2

97 | 8

1.7 ГБ

В этой теме нет новых непрочитанных сообщений. Город Мечты / Волшебный город / Magic City [S01-02] (2012–2013) WEB-DL 1080p l D

14 | 12

33.23 ГБ

В этой теме нет новых непрочитанных сообщений. Город порока / Broken City (2013) BDRip 1080p от Youtracker

10 | 8

10.46 ГБ

В этой теме нет новых непрочитанных сообщений. Город порока / Broken City (2013) BDRip 1080p | Чистый звук

22 | 10

10.97 ГБ

В этой теме нет новых непрочитанных сообщений. Город порока / Broken City (2013) BDRip 1080p от Leonardo and Scarabey | US Transfer

232 | 50

7.35 ГБ

В этой теме нет новых непрочитанных сообщений. Орудия смерти: Город костей / The Mortal Instruments: City of Bones (2013) BDRip 1080p

509 | 101

7.76 ГБ




Вы не можете начинать темы
Вы не можете отвечать на сообщения
Вы не можете редактировать свои сообщения
Вы не можете удалять свои сообщения
Вы не можете добавлять вложения

Перейти:  
Для Мосгорсуда, Роскомнадзора и рекламодателей: mosgorsud-torrent[собачка]yandex.ru
 Вход
ppkBB3cker v.2 © 2008-2014 @ PPK
[ Time : 0.517s | 15 Queries | GZIP : Off ]

Торрент трекер RUTOR.IN, Не можете зайти на rutor.org? Какой новый адрес рутор? Какое зеркало рутор? Не работает rutor.org и зеркала? Тогда наш торрент специально для вас. Rutor.in неофициальное зеркало rutor. В случае если у Вас заблокирован rutor или вдруг Вы не можете на него зайти, то Вы без труда сможете скачать бесплатно и без рекламы последние новинки кино, игр, сериалов и прочего у нас, на Rutor.in. Не нужно использовать прокси, чтобы зайти на рутор, достаточно воспользоваться нашим ресурсом. Все новые фильмы, игры, сериалы, книги и музыка за 2013 и 2014 годы через торрент бесплатно. Скачивайте фильмы в хорошем качестве, игры для пк, xbox, playstation без регистрации. У нас вы найдете новые Зарубежные сериалы и Русские сериалы 2013, 2014, 2015 годов. Оставайтесь с нами, качайте любимые фильмы, игры, сериалы, книги и музыку.