img image001 image001 image001 image001 image001 image001 image001 image001 image001 image001 image001 image001 image001 image001 image001

Planets Sun Sun Sun
Статистика раздачи
Автор: Снежана | Размер: 2.62 ГБ | Добавлен: 12 авг 2013
Раздают: 22    Качают: 4
Скачать торрент
Скачать торрент
Описание торрента

СообщениеДобавлено: 12 авг 2013 

#77

Информация о фильме
Название: Дикий мир Амазонки
Оригинальное название: Amazon: The Flooded Forest
Год выхода: 1989
Жанр: Документальный
Режиссер: Барбара Джемпл / Barbara Jampel
Рассказывает: Энтони Хопкинс

О фильме:
Амазонка - самая многоводная река в мире. На пути к океану она вбирает в себя более 15000 рек и речушек. Особенности рельефа местности (низменная равнина, покрытая тропическими лесами) и климата (жаркий и влажный) создают уникальный природный феномен - по полгода леса Амазонии стоят затопленными на глубину до 10 метров! И вот в этих подводных джунглях разворачиваются захватывающие жизненные драмы. Пираньи и ламантины, кайманы и анаконда, дельфины и водяные свиньи, всевозможные рыбы - вот лишь малая толика удивительных существ, населяющих Амазонию. Приглашаем вас, совершить увлекательное путешествие в экзотический мир великой реки!

Страна: США
Студия: ВВС
Продолжительность: 00:49:27 + 00:48:33 = 01:38:00
Перевод: Профессиональный (одноголосый закадровый)

Файл
Формат: m4v
Кодек: H.264
Качество: DVDRip-AVC
Видео: 688x566 (анаморф 734x566), 3500kbps, 25fps
Аудио: AAC, 2 channels, 48.0 KHz, 160kbps VBR
Метатэги: Прописаны
Навигация по главам: есть

Раздача будет полезна пользователям iOS и OS X платформ из-за родных кодеков и контейнера.
При просмотре на Windows рекомендую пользоваться iTunes или VLC media player.

x264 [info]: frame I:608 Avg QP:18.38 size: 40903 PSNR Mean Y:46.16 U:50.12 V:51.61 Avg:47.21 Global:46.75
x264 [info]: frame P:49444 Avg QP:20.88 size: 20912 PSNR Mean Y:43.65 U:48.40 V:50.20 Avg:44.82 Global:44.27
x264 [info]: frame B:24124 Avg QP:23.84 size: 9921 PSNR Mean Y:40.49 U:46.98 V:49.00 Avg:41.84 Global:41.27
x264 [info]: consecutive B-frames: 38.1% 53.5% 6.5% 1.3% 0.5% 0.0% 0.0% 0.0% 0.0% 0.1%
x264 [info]: mb I I16..4: 5.0% 74.5% 20.5%
x264 [info]: mb P I16..4: 0.8% 15.4% 2.5% P16..4: 39.6% 27.6% 12.9% 0.0% 0.0% skip: 1.3%
x264 [info]: mb B I16..4: 0.0% 1.5% 0.4% B16..8: 41.0% 13.6% 4.3% direct:15.8% skip:23.3% L0:36.9% L1:42.6% BI:20.4%
x264 [info]: 8x8 transform intra:81.8% inter:59.6%
x264 [info]: coded y,uvDC,uvAC intra: 92.5% 74.8% 25.4% inter: 57.8% 46.8% 2.0%
x264 [info]: i16 v,h,dc,p: 16% 21% 13% 50%
x264 [info]: i8 v,h,dc,ddl,ddr,vr,hd,vl,hu: 9% 6% 3% 11% 16% 15% 15% 12% 13%
x264 [info]: i4 v,h,dc,ddl,ddr,vr,hd,vl,hu: 9% 8% 2% 9% 15% 15% 16% 12% 15%
x264 [info]: i8c dc,h,v,p: 36% 31% 18% 15%
x264 [info]: Weighted P-Frames: Y:14.6% UV:0.8%
x264 [info]: ref P L0: 46.5% 13.1% 14.3% 7.3% 5.1% 4.1% 3.8% 2.2% 2.1% 1.6% 0.1%
x264 [info]: ref B L0: 81.1% 9.7% 3.7% 1.9% 1.5% 1.1% 1.0% 0.1%
x264 [info]: ref B L1: 98.6% 1.4%
x264 [info]: SSIM Mean Y:0.9746103 (15.953db)
x264 [info]: PSNR Mean Y:42.640 U:47.954 V:49.820 Avg:43.870 Global:43.059 kb/s:3500.23

General
Format : MPEG-4
Codec ID : M4V
File size : 2.62 GiB
Duration : 1h 38mn
Overall bit rate mode : Variable
Overall bit rate : 3 828 Kbps
Movie name : Amazon: The Flooded Forest
Performer : Barbara Jampel
Encoded date : UTC 2013-07-29 13:13:07
Tagged date : UTC 2013-07-29 14:43:19
Cover : Yes
desc : Амазонка - самая многоводная река в мире. На пути к океану она вбирает в себя более 15000 рек и речушек. Особенности рельефа местности (низменная равнина, покрытая тропическими лесами) и климата (жаркий и влажный) создают уникальный природный феномен - по полгода леса Амазонии стоят затопленными на глубину до 10 метров! И вот в этих подводных джунглях разворачиваются захватывающие жизненные драмы. Пираньи и ламантины, кайманы и анаконда, дельфины и водяные свиньи, всевозможные рыбы - вот лишь малая толика удивительных существ, населяющих Амазонию. Приглашаем вас, совершить увлекательное путешествие в экзотический мир великой реки!
stik : 9
rtng : 0

Video #1
ID : 1
Format : AVC
Format/Info : Advanced Video Codec
Format profile : High@L4.1
Format settings, CABAC : Yes
Format settings, ReFrames : 9 frames
Codec ID : avc1
Codec ID/Info : Advanced Video Coding
Duration : 1h 38mn
Bit rate mode : Variable
Bit rate : 3 500 Kbps
Width : 688 pixels
Height : 566 pixels
Display aspect ratio : 1.297
Frame rate mode : Constant
Frame rate : 25.000 fps
Color space : YUV
Chroma subsampling : 4:2:0
Bit depth : 8 bits
Scan type : Progressive
Bits/(Pixel*Frame) : 0.360
Stream size : 2.40 GiB (91%)
Writing library : x264 core 130 r2273 b3065e6
Encoding settings : cabac=1 / ref=9 / deblock=1:0:0 / analyse=0x3:0x113 / me=umh / subme=9 / psy=1 / psy_rd=1.00:0.00 / mixed_ref=1 / me_range=32 / chroma_me=1 / trellis=1 / 8x8dct=1 / cqm=0 / deadzone=21,11 / fast_pskip=1 / chroma_qp_offset=-2 / threads=6 / lookahead_threads=1 / sliced_threads=0 / nr=0 / decimate=1 / interlaced=0 / bluray_compat=0 / constrained_intra=0 / bframes=9 / b_pyramid=2 / b_adapt=1 / b_bias=0 / direct=1 / weightb=1 / open_gop=0 / weightp=2 / keyint=250 / keyint_min=25 / scenecut=40 / intra_refresh=0 / rc_lookahead=40 / rc=2pass / mbtree=1 / bitrate=3500 / ratetol=1.0 / qcomp=0.60 / qpmin=0 / qpmax=69 / qpstep=4 / cplxblur=20.0 / qblur=0.5 / vbv_maxrate=62500 / vbv_bufsize=78125 / nal_hrd=none / ip_ratio=1.40 / aq=1:1.00
Language : English
Encoded date : UTC 2013-07-29 13:13:07
Tagged date : UTC 2013-07-29 13:14:30
Color primaries : BT.601 PAL
Transfer characteristics : BT.709
Matrix coefficients : BT.601

Video #2
ID : 5
Format : JPEG
Codec ID : jpeg
Duration : 1h 38mn
Bit rate mode : Variable
Bit rate : 984 bps
Width : 640 pixels
Height : 493 pixels
Display aspect ratio : 1.298
Frame rate mode : Variable
Frame rate : 0.002 fps
Minimum frame rate : 0.001 fps
Maximum frame rate : 0.003 fps
Color space : YUV
Chroma subsampling : 4:2:0
Bit depth : 8 bits
Compression mode : Lossy
Bits/(Pixel*Frame) : 1.559
Stream size : 721 KiB (0%)
Language : English
Encoded date : UTC 2013-07-29 13:14:42
Tagged date : UTC 2013-07-29 13:14:42

Audio #1
ID : 2
Format : AAC
Format/Info : Advanced Audio Codec
Format profile : LC
Codec ID : 40
Duration : 1h 37mn
Bit rate mode : Variable
Bit rate : 170 Kbps
Maximum bit rate : 196 Kbps
Channel(s) : 2 channels
Channel positions : Front: L R
Sampling rate : 48.0 KHz
Compression mode : Lossy
Delay relative to video : 80ms
Stream size : 119 MiB (4%)
Language : Russian
Encoded date : UTC 2013-07-29 13:13:07
Tagged date : UTC 2013-07-29 13:14:30

Audio #2
ID : 3
Format : AAC
Format/Info : Advanced Audio Codec
Format profile : LC
Codec ID : 40
Duration : 1h 37mn
Bit rate mode : Variable
Bit rate : 150 Kbps
Maximum bit rate : 185 Kbps
Channel(s) : 2 channels
Channel positions : Front: L R
Sampling rate : 48.0 KHz
Compression mode : Lossy
Delay relative to video : 80ms
Stream size : 105 MiB (4%)
Language : English
Encoded date : UTC 2013-07-29 13:13:07
Tagged date : UTC 2013-07-29 13:14:30

Menu #2
ID : 4
Codec ID : text
Duration : 1h 38mn
Language : English
Encoded date : UTC 2013-07-29 13:14:31
Tagged date : UTC 2013-07-29 13:14:31
Bit rate mode : CBR
00:00:00.000 : Chapter 1.1
00:06:46.360 : Chapter 1.2
00:15:35.320 : Chapter 1.3
00:25:05.920 : Chapter 1.4
00:35:35.080 : Chapter 1.5
00:44:30.280 : Chapter 1.6
00:49:27.040 : Chapter 2.1
00:56:23.960 : Chapter 2.2
01:02:23.480 : Chapter 2.3
01:09:09.560 : Chapter 2.4
01:17:07.400 : Chapter 2.5
01:30:05.960 : Chapter 2.6



   Похожие торренты   Торрент   Размер 
В этой теме нет новых непрочитанных сообщений. Дикий мир Амазонки / Amazon: The Flooded Forest (1989) DVDRip от pro100shara

24 | 3

1.37 ГБ

В этой теме нет новых непрочитанных сообщений. Сокровища Амазонки / The Treasure of the Amazon (1985) DVDRip от NovaLan

31 | 13

1.48 ГБ

В этой теме нет новых непрочитанных сообщений. Геракл и амазонки / Hercules and the Amazon Women (1994) DVDRip

29 | 4

789.97 МБ

В этой теме нет новых непрочитанных сообщений. Амазонки на Луне / Amazon Women on the Moon (1987) DVDRip от NovaLan

20 | 7

1.47 ГБ

В этой теме нет новых непрочитанных сообщений. Женская тюрьма в Амазонии / Амазонки в тюрьме / Amazon Jail / Curral de Mulheres (1982) DVDRip | L1

414 | 85

1.37 ГБ

В этой теме нет новых непрочитанных сообщений. Тайны заливного леса: Национальный парк Дунай / Secrets of the Flooded Forest: Danube National Park (2010) HDTVRip 1080p от MediaClub

2 | 14

4.36 ГБ

В этой теме нет новых непрочитанных сообщений. National Geographic. Дикая природа Амазонки / National Geographic. Wild Amazon [2 из 2] (2010) HDTVRip от ExKinoRay

24 | 6

1.37 ГБ




Вы не можете начинать темы
Вы не можете отвечать на сообщения
Вы не можете редактировать свои сообщения
Вы не можете удалять свои сообщения
Вы не можете добавлять вложения

Перейти:  
Для Мосгорсуда, Роскомнадзора и рекламодателей: mosgorsud-torrent[собачка]yandex.ru
 Вход
ppkBB3cker v.2 © 2008-2014 @ PPK
[ Time : 0.018s | 14 Queries | GZIP : Off ]

Торрент трекер RUTOR.IN, Не можете зайти на rutor.org? Какой новый адрес рутор? Какое зеркало рутор? Не работает rutor.org и зеркала? Тогда наш торрент специально для вас. Rutor.in неофициальное зеркало rutor. В случае если у Вас заблокирован rutor или вдруг Вы не можете на него зайти, то Вы без труда сможете скачать бесплатно и без рекламы последние новинки кино, игр, сериалов и прочего у нас, на Rutor.in. Не нужно использовать прокси, чтобы зайти на рутор, достаточно воспользоваться нашим ресурсом. Все новые фильмы, игры, сериалы, книги и музыка за 2013 и 2014 годы через торрент бесплатно. Скачивайте фильмы в хорошем качестве, игры для пк, xbox, playstation без регистрации. У нас вы найдете новые Зарубежные сериалы и Русские сериалы 2013, 2014, 2015 годов. Оставайтесь с нами, качайте любимые фильмы, игры, сериалы, книги и музыку.