img image001 image001 image001 image001 image001 image001 image001 image001 image001 image001 image001 image001 image001 image001 image001

Planets Sun Sun Sun
Статистика раздачи
Автор: Снежана | Размер: 2.2 ГБ | Добавлен: 12 авг 2013
Раздают: 38    Качают: 7
Скачать торрент
Скачать торрент
Описание торрента

СообщениеДобавлено: 12 авг 2013 

#77

Информация о фильме
Название: Жажда мира
Оригинальное название: La soif du monde
Год выхода: 2012
Жанр: Документальный
Режиссёры: Тьерри Пиантанида, Батист Руже-Люшер

О фильме:
На этот раз знаменитый фотограф Ян Артус Бертранд, смотрит на одну из основных проблем для выживания человека: Вода. Сегодня, на фоне резкого увеличения спроса, численности населения и изменения климата, вода стала одним из самых ценных природных ресурсов нашей планеты. Фильм "Жажда мира" снятый в 20 странах, показывает, таинственный и увлекательный мир пресной воды через впечатляющие кадры, снятые в регионах, которые являются труднодоступными. Это позволяет нам открыть для себя самые красивые пейзажи на нашей планете, озер, рек и водно-болотных угодий созданных водой.



Страна: Франция
Студия: Universal Pictures
Продолжительность: 01:31:10
Перевод: Авторский (одноголосый закадровый) Кудров
Субтитры: Русские
Дата релиза: 31.07.2013

Файл
Кодек: Н264
Качество: BDRip (AVC)
Видео: MPEG-4 AVC, 3000 kбит/с, 1024x576
Звук: AC3, 6 ch, 448 Кбит/с

Общее
Уникальный идентификатор : 207895198870449442350496481772636444844 (0x9C6728AC5A4BE07BA72FD1A33B6B98AC)
Полное имя : E:Zhazhda.mira.2012.x264.BDRip.(AVC).ExKinoRay.mkv
Формат : Matroska
Размер файла : 2,20 Гбайт
Продолжительность : 1 ч. 31 м.
Общий поток : 3450 Кбит/сек
Название фильма : Zhazhda.mira.2012.x264.BDRip.(AVC).ExKinoRay
Дата кодирования : UTC 2013-07-31 13:23:13
Программа кодирования : mkvmerge v4.0.0 ('The Stars were mine') сборка от Jun 6 2010 16:18:42
Библиотека кодирования : libebml v1.0.0 + libmatroska v1.0.0

Видео
Идентификатор : 1
Формат : AVC
Формат/Информация : Advanced Video Codec
Профиль формата : High@L4.1
Параметр CABAC формата : Да
Параметр ReFrames формата : 8 кадров
Параметры GOP формата : M=9, N=27
Идентификатор кодека : V_MPEG4/ISO/AVC
Продолжительность : 1 ч. 31 м.
Битрейт : 3000 Кбит/сек
Ширина : 1024 пикс.
Высота : 576 пикс.
Соотношение сторон : 16:9
Частота кадров : 23,976 кадр/сек
Цветовое пространство : YUV
Подвыборка цветности : 4:2:0
Битовая глубина : 8 бит
Тип развёртки : Прогрессивная
Бит/(Пиксели*Кадры) : 0.212
Размер потока : 1,87 Гбайт (85%)
Заголовок : Rip by Enigma-Vladislav71
Библиотека кодирования : x264 core 129 r2245 bc13772
Настройки программы : cabac=1 / ref=8 / deblock=1:-2:-2 / analyse=0x3:0x133 / me=umh / subme=11 / psy=1 / psy_rd=1.00:0.00 / mixed_ref=1 / me_range=48 / chroma_me=1 / trellis=2 / 8x8dct=1 / cqm=0 / deadzone=21,11 / fast_pskip=0 / chroma_qp_offset=-2 / threads=3 / lookahead_threads=1 / sliced_threads=0 / nr=0 / decimate=0 / interlaced=0 / bluray_compat=0 / constrained_intra=0 / bframes=8 / b_pyramid=2 / b_adapt=2 / b_bias=0 / direct=3 / weightb=1 / open_gop=0 / weightp=2 / keyint=240 / keyint_min=23 / scenecut=40 / intra_refresh=0 / rc_lookahead=40 / rc=2pass / mbtree=1 / bitrate=3000 / ratetol=1.0 / qcomp=0.60 / qpmin=10 / qpmax=51 / qpstep=4 / cplxblur=20.0 / qblur=0.5 / ip_ratio=1.40 / aq=2:1.00
Язык : English

Аудио
Идентификатор : 2
Формат : AC-3
Формат/Информация : Audio Coding 3
Расширение режима : CM (complete main)
Идентификатор кодека : A_AC3
Продолжительность : 1 ч. 31 м.
Вид битрейта : Постоянный
Битрейт : 448 Кбит/сек
Каналы : 6 каналов
Расположение каналов : Front: L C R, Side: L R, LFE
Частота : 48,0 КГц
Битовая глубина : 16 бит
Метод сжатия : С потерями
Размер потока : 292 Мбайт (13%)
Язык : Russian

Текст
Идентификатор : 3
Формат : UTF-8
Идентификатор кодека : S_TEXT/UTF8
Идентификатор кодека/Информация : UTF-8 Plain Text
Язык : Russian





Релиз от:

Авторы релиза:



   Похожие торренты   Торрент   Размер 
В этой теме нет новых непрочитанных сообщений. Жажда мира / La soif du monde (2012) BDRip 720p от NoLimits-Team

8 | 2

4.37 ГБ

В этой теме нет новых непрочитанных сообщений. Жажда мира / La soif du monde (2012) BDRip 1080p от NoLimits-Team

4 | 18

7.95 ГБ

В этой теме нет новых непрочитанных сообщений. Жажда мира / La soif du monde (2012) HDRip | P1

3 | 2

1.37 ГБ

В этой теме нет новых непрочитанных сообщений. Жажда мира / La soif du monde (2012) Blu-Ray 1080p

4 | 18

20.29 ГБ

В этой теме нет новых непрочитанных сообщений. Жажда мира / La soif du monde (2012) HDTVRip-AVC от Тorrent-Хzona | А1

5 | 2

1.36 ГБ

В этой теме нет новых непрочитанных сообщений. Жажда золота / La soif de l'or (1993) DVDRip

84 | 9

1.75 ГБ

В этой теме нет новых непрочитанных сообщений. Жажда золота / La soif de l'or (1993) DVDRip-AVC

6 | 2

1.36 ГБ




Вы не можете начинать темы
Вы не можете отвечать на сообщения
Вы не можете редактировать свои сообщения
Вы не можете удалять свои сообщения
Вы не можете добавлять вложения

Перейти:  
Для Мосгорсуда, Роскомнадзора и рекламодателей: mosgorsud-torrent[собачка]yandex.ru
 Вход
ppkBB3cker v.2 © 2008-2014 @ PPK
[ Time : 0.043s | 17 Queries | GZIP : Off ]

Торрент трекер RUTOR.IN, Не можете зайти на rutor.org? Какой новый адрес рутор? Какое зеркало рутор? Не работает rutor.org и зеркала? Тогда наш торрент специально для вас. Rutor.in неофициальное зеркало rutor. В случае если у Вас заблокирован rutor или вдруг Вы не можете на него зайти, то Вы без труда сможете скачать бесплатно и без рекламы последние новинки кино, игр, сериалов и прочего у нас, на Rutor.in. Не нужно использовать прокси, чтобы зайти на рутор, достаточно воспользоваться нашим ресурсом. Все новые фильмы, игры, сериалы, книги и музыка за 2013 и 2014 годы через торрент бесплатно. Скачивайте фильмы в хорошем качестве, игры для пк, xbox, playstation без регистрации. У нас вы найдете новые Зарубежные сериалы и Русские сериалы 2013, 2014, 2015 годов. Оставайтесь с нами, качайте любимые фильмы, игры, сериалы, книги и музыку.
cron