img image001 image001 image001 image001 image001 image001 image001 image001 image001 image001 image001 image001 image001 image001 image001

Planets Sun Sun Sun
Статистика раздачи
Автор: Снежана | Размер: 4.1 ГБ | Добавлен: 12 авг 2013
Раздают: 5    Качают: 107
Скачать торрент
Скачать торрент
Описание торрента

СообщениеДобавлено: 12 авг 2013 

Жизнь в неволе
Дикие животные в неволе
Animal Intervention



#77

Год выпуска: 2012
Страна: США
Жанр: Документальный
Продолжительность: 270 мин. (6 серий по 45 мин.)
Перевод: Профессиональный (одноголосый закадровый) | АРК·ТВ
Русские субтитры: нет


Режиссеры: Джей Биенсток / Jay Bienstock, Юджин Янг / Eugene Young

Описание: Адвокат по защите животных, член общественного движения Элисон Иствуд, эксперт по животным Дональд Шультц и активист Билли МакНамара исследуют случаи, когда животные живут в заточении и им грозит опасность. Когда приходит сообщение о таком деле, исследователи предлагают владельцам экзотических животных обсудить возможность перевести зверей в безопасное и чистое место. Они также расследуют дела, когда диких животных вынуждают участвовать в магических шоу, держат в дорожных зоопарках и на частных землевладениях. Зачастую им удается освободить животное. Конечно, владельцам тяжело попрощаться со своими любимцами, но они также понимают, что животных доставят до места назначения в полной безопасности. Иногда владельцы отказываются отдать животное. Тогда наши защитники животных предлагают другие выходы из сложившейся ситуации.

Список серий:
01. Обезьянник на колесах / RV Monkeys
Элисон и Дональд знакомятся с иллюзионистом, критикуемым за его номера с животными, и парой из Луизианы, незаконно содержащей обезьян-капуцинов.
02. Люди и тигры / Tigers on the Strip
В отдаленном городке в Неваде эксцентричная пара, содержащая тигров, разрешает посетителям, включая детей, контактировать с их большими кошками.
03. Хозяйка тигров / Tiger Lady
Элисон и Билли посещают пожилую женщину, пытающуюся заботиться о 25 больших кошках, и фермера, который держит у себя медведя.
04. Переезд Буббы / Trouble with Bubba
Элисон и Дональд посещают приют для больших кошек в Огайо, будущему которого угрожает принятие новых законов в этом штате.
05. Танцы с медведями / Dances With Bears
Ведущие знакомятся с мужчиной, который позволяет публике играть с его тигрятами, а также посещают т.н. "медвежий зоопарк" в резервации чероки.
06. Мамины дети / Mama's Boys
Элисон и Билли едут в Огайо, где из-за нестрогих законов процветает торговля экзотическими животными, и посещают дом, полный опасных хищников.


Автор рипа: Leo.pard
Исходник: HDTV 1080i Спасибо LeXa 84!


Kачество: HDTVRip
Формат: AVI
Видео: XviD, 720x400 (16:9), ~ 1975 Kbps, 25 fps
Аудио: MP2, 192 Kbps, 48 kHz, 2 channels

Сэмпл: http://multi-up.com/890291

01. Обезьянник на колесах / RV Monkeys
General
Complete name : D:Zhizn'.v.nevole.2012.HDTVRipZhizn'.v.nevole.E01.Obez'jannik.na.kolesah.2012.HDTVRip.avi
Format : AVI
Format/Info : Audio Video Interleave
File size : 700 MiB
Duration : 44mn 59s
Overall bit rate : 2 177 Kbps
Writing application : VirtualDubMod 1.5.10.3 | www.virtualdub-fr.org || (build 2550/release)
Writing library : VirtualDubMod build 2550/release

Video
ID : 0
Format : MPEG-4 Visual
Format profile : Advanced Simple@L5
Format settings, BVOP : 1
Format settings, QPel : No
Format settings, GMC : No warppoints
Format settings, Matrix : Custom
Codec ID : XVID
Codec ID/Hint : XviD
Duration : 44mn 59s
Bit rate : 1 975 Kbps
Width : 720 pixels
Height : 400 pixels
Display aspect ratio : 16:9
Frame rate : 25.000 fps
Color space : YUV
Chroma subsampling : 4:2:0
Bit depth : 8 bits
Scan type : Progressive
Compression mode : Lossy
Bits/(Pixel*Frame) : 0.274
Stream size : 635 MiB (91%)
Writing library : XviD 73

Audio
ID : 1
Format : MPEG Audio
Format version : Version 1
Format profile : Layer 2
Codec ID : 50
Duration : 44mn 59s
Bit rate mode : Constant
Bit rate : 192 Kbps
Channel(s) : 2 channels
Sampling rate : 48.0 KHz
Compression mode : Lossy
Stream size : 61.8 MiB (9%)
Alignment : Aligned on interleaves
Interleave, duration : 40 ms (1.00 video frame)
Interleave, preload duration : 504 ms

02. Люди и тигры / Tigers on the Strip
General
Complete name : D:Zhizn'.v.nevole.2012.HDTVRipZhizn'.v.nevole.E02.Ljudi.i.tigry.2012.HDTVRip.avi
Format : AVI
Format/Info : Audio Video Interleave
File size : 700 MiB
Duration : 44mn 59s
Overall bit rate : 2 177 Kbps
Writing application : VirtualDubMod 1.5.10.3 | www.virtualdub-fr.org || (build 2550/release)
Writing library : VirtualDubMod build 2550/release

Video
ID : 0
Format : MPEG-4 Visual
Format profile : Advanced Simple@L5
Format settings, BVOP : 1
Format settings, QPel : No
Format settings, GMC : No warppoints
Format settings, Matrix : Custom
Codec ID : XVID
Codec ID/Hint : XviD
Duration : 44mn 59s
Bit rate : 1 975 Kbps
Width : 720 pixels
Height : 400 pixels
Display aspect ratio : 16:9
Frame rate : 25.000 fps
Color space : YUV
Chroma subsampling : 4:2:0
Bit depth : 8 bits
Scan type : Progressive
Compression mode : Lossy
Bits/(Pixel*Frame) : 0.274
Stream size : 635 MiB (91%)
Writing library : XviD 73

Audio
ID : 1
Format : MPEG Audio
Format version : Version 1
Format profile : Layer 2
Codec ID : 50
Duration : 44mn 59s
Bit rate mode : Constant
Bit rate : 192 Kbps
Channel(s) : 2 channels
Sampling rate : 48.0 KHz
Compression mode : Lossy
Stream size : 61.8 MiB (9%)
Alignment : Aligned on interleaves
Interleave, duration : 40 ms (1.00 video frame)
Interleave, preload duration : 504 ms

03. Хозяйка тигров / Tiger Lady
General
Complete name : D:Zhizn'.v.nevole.2012.HDTVRipZhizn'.v.nevole.E03.Hozjajka.tigrov.2012.HDTVRip.avi
Format : AVI
Format/Info : Audio Video Interleave
File size : 700 MiB
Duration : 44mn 59s
Overall bit rate : 2 174 Kbps
Writing application : VirtualDubMod 1.5.10.3 | www.virtualdub-fr.org || (build 2550/release)
Writing library : VirtualDubMod build 2550/release

Video
ID : 0
Format : MPEG-4 Visual
Format profile : Advanced Simple@L5
Format settings, BVOP : 1
Format settings, QPel : No
Format settings, GMC : No warppoints
Format settings, Matrix : Custom
Codec ID : XVID
Codec ID/Hint : XviD
Duration : 44mn 59s
Bit rate : 1 972 Kbps
Width : 720 pixels
Height : 400 pixels
Display aspect ratio : 16:9
Frame rate : 25.000 fps
Color space : YUV
Chroma subsampling : 4:2:0
Bit depth : 8 bits
Scan type : Progressive
Compression mode : Lossy
Bits/(Pixel*Frame) : 0.274
Stream size : 635 MiB (91%)
Writing library : XviD 73

Audio
ID : 1
Format : MPEG Audio
Format version : Version 1
Format profile : Layer 2
Codec ID : 50
Duration : 44mn 59s
Bit rate mode : Constant
Bit rate : 192 Kbps
Channel(s) : 2 channels
Sampling rate : 48.0 KHz
Compression mode : Lossy
Stream size : 61.8 MiB (9%)
Alignment : Aligned on interleaves
Interleave, duration : 40 ms (1.00 video frame)
Interleave, preload duration : 504 ms

04. Переезд Буббы / Trouble with Bubba
General
Complete name : D:Zhizn'.v.nevole.2012.HDTVRipZhizn'.v.nevole.E04.Pereezd.Bubby.2012.HDTVRip.avi
Format : AVI
Format/Info : Audio Video Interleave
File size : 700 MiB
Duration : 44mn 59s
Overall bit rate : 2 177 Kbps
Writing application : VirtualDubMod 1.5.10.3 | www.virtualdub-fr.org || (build 2550/release)
Writing library : VirtualDubMod build 2550/release

Video
ID : 0
Format : MPEG-4 Visual
Format profile : Advanced Simple@L5
Format settings, BVOP : 1
Format settings, QPel : No
Format settings, GMC : No warppoints
Format settings, Matrix : Custom
Codec ID : XVID
Codec ID/Hint : XviD
Duration : 44mn 59s
Bit rate : 1 975 Kbps
Width : 720 pixels
Height : 400 pixels
Display aspect ratio : 16:9
Frame rate : 25.000 fps
Color space : YUV
Chroma subsampling : 4:2:0
Bit depth : 8 bits
Scan type : Progressive
Compression mode : Lossy
Bits/(Pixel*Frame) : 0.274
Stream size : 635 MiB (91%)
Writing library : XviD 73

Audio
ID : 1
Format : MPEG Audio
Format version : Version 1
Format profile : Layer 2
Codec ID : 50
Duration : 44mn 59s
Bit rate mode : Constant
Bit rate : 192 Kbps
Channel(s) : 2 channels
Sampling rate : 48.0 KHz
Compression mode : Lossy
Stream size : 61.8 MiB (9%)
Alignment : Aligned on interleaves
Interleave, duration : 40 ms (1.00 video frame)
Interleave, preload duration : 504 ms

05. Танцы с медведями / Dances With Bears
General
Complete name : D:Жизнь в неволе RipAVIZhizn'.v.nevole.2012.HDTVRipZhizn'.v.nevole.E05.Tancy.s.medvedjami.2012.HDTVRip.avi
Format : AVI
Format/Info : Audio Video Interleave
File size : 700 MiB
Duration : 44mn 46s
Overall bit rate : 2 187 Kbps
Writing application : VirtualDubMod 1.5.10.3 | www.virtualdub-fr.org || (build 2550/release)
Writing library : VirtualDubMod build 2550/release

Video
ID : 0
Format : MPEG-4 Visual
Format profile : Advanced Simple@L5
Format settings, BVOP : 1
Format settings, QPel : No
Format settings, GMC : No warppoints
Format settings, Matrix : Custom
Codec ID : XVID
Codec ID/Hint : XviD
Duration : 44mn 46s
Bit rate : 1 985 Kbps
Width : 720 pixels
Height : 400 pixels
Display aspect ratio : 16:9
Frame rate : 25.000 fps
Color space : YUV
Chroma subsampling : 4:2:0
Bit depth : 8 bits
Scan type : Progressive
Compression mode : Lossy
Bits/(Pixel*Frame) : 0.276
Stream size : 636 MiB (91%)
Writing library : XviD 73

Audio
ID : 1
Format : MPEG Audio
Format version : Version 1
Format profile : Layer 2
Codec ID : 50
Duration : 44mn 46s
Bit rate mode : Constant
Bit rate : 192 Kbps
Channel(s) : 2 channels
Sampling rate : 48.0 KHz
Compression mode : Lossy
Stream size : 61.5 MiB (9%)
Alignment : Aligned on interleaves
Interleave, duration : 40 ms (1.00 video frame)
Interleave, preload duration : 504 ms

06. Мамины дети / Mama's Boys
General
Complete name : D:Zhizn'.v.nevole.2012.HDTVRipZhizn'.v.nevole.E06.Maminy.deti.2012.HDTVRip.avi
Format : AVI
Format/Info : Audio Video Interleave
File size : 699 MiB
Duration : 45mn 1s
Overall bit rate : 2 172 Kbps
Writing application : VirtualDubMod 1.5.10.3 | www.virtualdub-fr.org || (build 2550/release)
Writing library : VirtualDubMod build 2550/release

Video
ID : 0
Format : MPEG-4 Visual
Format profile : Advanced Simple@L5
Format settings, BVOP : 1
Format settings, QPel : No
Format settings, GMC : No warppoints
Format settings, Matrix : Custom
Codec ID : XVID
Codec ID/Hint : XviD
Duration : 45mn 1s
Bit rate : 1 970 Kbps
Width : 720 pixels
Height : 400 pixels
Display aspect ratio : 16:9
Frame rate : 25.000 fps
Color space : YUV
Chroma subsampling : 4:2:0
Bit depth : 8 bits
Scan type : Progressive
Compression mode : Lossy
Bits/(Pixel*Frame) : 0.274
Stream size : 634 MiB (91%)
Writing library : XviD 73

Audio
ID : 1
Format : MPEG Audio
Format version : Version 1
Format profile : Layer 2
Codec ID : 50
Duration : 45mn 1s
Bit rate mode : Constant
Bit rate : 192 Kbps
Channel(s) : 2 channels
Sampling rate : 48.0 KHz
Compression mode : Lossy
Stream size : 61.8 MiB (9%)
Alignment : Aligned on interleaves
Interleave, duration : 40 ms (1.00 video frame)
Interleave, preload duration : 504 ms






   Похожие торренты   Торрент   Размер 
В этой теме нет новых непрочитанных сообщений. Nat Geo Wild: Жизнь в неволе / Дикие животные в неволе / Animal Intervention [01-06 из 6] (2012) HDTVRip-AVC от Leo.pard | P1

5 | 3

4.1 ГБ

В этой теме нет новых непрочитанных сообщений. Animal Planet. Дикие животные / Wild Ones [01-02] (2014) HDTVRip от GENERALFILM | P1

25 | 5

1.59 ГБ

В этой теме нет новых непрочитанных сообщений. Animal Planet. Дикие животные / Wild Ones [01-02] (2014) HDTVRip от GENERALFILM | P1

146 | 10

2.13 ГБ

В этой теме нет новых непрочитанных сообщений. Animal Planet. Дикие животные / Wild Ones [01-02] (2014) HDTVRip от GENERALFILM | P1

74 | 8

542.38 МБ

В этой теме нет новых непрочитанных сообщений. Animal Planet. Дикие животные / Wild Ones [01-02] (2014) HDTVRip от GENERALFILM | P1

28 | 3

1.06 ГБ

В этой теме нет новых непрочитанных сообщений. Дикие животные Японии / Japan's Wild Year (2014) HDTVRip от torrentfilm

387 | 13

610.77 МБ

В этой теме нет новых непрочитанных сообщений. Эстер Перель - Размножение в неволе. Как примирить эротику и быт (2015) FB2, EPUB, OCR

281 | 12

1.38 МБ




Вы не можете начинать темы
Вы не можете отвечать на сообщения
Вы не можете редактировать свои сообщения
Вы не можете удалять свои сообщения
Вы не можете добавлять вложения

Перейти:  
Для Мосгорсуда, Роскомнадзора и рекламодателей: mosgorsud-torrent[собачка]yandex.ru
 Вход
ppkBB3cker v.2 © 2008-2014 @ PPK
[ Time : 0.037s | 14 Queries | GZIP : On ]

Торрент трекер RUTOR.IN, Не можете зайти на rutor.org? Какой новый адрес рутор? Какое зеркало рутор? Не работает rutor.org и зеркала? Тогда наш торрент специально для вас. Rutor.in неофициальное зеркало rutor. В случае если у Вас заблокирован rutor или вдруг Вы не можете на него зайти, то Вы без труда сможете скачать бесплатно и без рекламы последние новинки кино, игр, сериалов и прочего у нас, на Rutor.in. Не нужно использовать прокси, чтобы зайти на рутор, достаточно воспользоваться нашим ресурсом. Все новые фильмы, игры, сериалы, книги и музыка за 2013 и 2014 годы через торрент бесплатно. Скачивайте фильмы в хорошем качестве, игры для пк, xbox, playstation без регистрации. У нас вы найдете новые Зарубежные сериалы и Русские сериалы 2013, 2014, 2015 годов. Оставайтесь с нами, качайте любимые фильмы, игры, сериалы, книги и музыку.