img image001 image001 image001 image001 image001 image001 image001 image001 image001 image001 image001 image001 image001 image001 image001

Planets Sun Sun Sun
Статистика раздачи
Автор: Снежана | Размер: 1.29 ГБ | Добавлен: 12 авг 2013
Раздают: 27    Качают: 3
Скачать торрент
Скачать торрент
Описание торрента

СообщениеДобавлено: 12 авг 2013 


Инфомация о фильме
Название: Discovery: Механизмы организма
Оригинальное название: The Body Machine
Год выхода: 2008
Жанр: Научно-популярный
О фильме
Мы любим свои машины - они работают за нас: перевозят, доставляют нам удовольствие. С каждым поколением они становятся быстрее, умнее и хитроумнее. Но как мы смотрим на них, так и они смотрят на нас! Потому что нет машины сложнее той, что скрыта под нашей кожей. Мы рассмотрим, как работает человеческий организм. Причем так подробно, как до сих пор это не делал никто... Нам откроется смысл каждой клетки крови, каждого слова, моргания, чиханья и сна, тайная жизнь единственной в своем роде машины - машины тела.
Страна: Канада
Студия: Discovery Channel
Продолжительность: 01:30:00
Перевод: Профессиональный(одноголосый, закадровый)
Файл
Формат: MKV
Качество: DVDRip-AVC
Видео: MPEG4 AVC, 1024 x 576, 25.000 fps, 1650 - 2036 Кбит/с
Звук: AC-3, 2 ch, 384 Кбит/с
Субтитры: Нет

General
Unique ID : 216737950554362224634106939369114004685 (0xA30E35FDEBC52B49BE7BEF40B8336CCD)
Complete name : D:DownloadsDiscovery.The.Body.Machine.2008.x264.HDTVRip.(AVC).by.HD-NET.mkv
Format : Matroska
Format version : Version 2
File size : 1.29 GiB
Duration : 1h 30mn
Overall bit rate : 2 036 Kbps
Encoded date : UTC 2013-08-02 23:22:11
Writing application : mkvmerge v6.1.0 ('Old Devil') built on Mar 4 2013 09:10:42
Writing library : libebml v1.3.0 + libmatroska v1.4.0
Video
ID : 1
Format : AVC
Format/Info : Advanced Video Codec
Format profile : High@L4.1
Format settings, CABAC : Yes
Format settings, ReFrames : 5 frames
Codec ID : V_MPEG4/ISO/AVC
Duration : 1h 30mn
Bit rate : 1 650 Kbps
Width : 1 024 pixels
Height : 576 pixels
Display aspect ratio : 16:9
Frame rate mode : Constant
Frame rate : 23.976 fps
Color space : YUV
Chroma subsampling : 4:2:0
Bit depth : 8 bits
Scan type : Progressive
Bits/(Pixel*Frame) : 0.117
Stream size : 1.02 GiB (79%)
Writing library : x264 core 130 r2273 b3065e6
Encoding settings : cabac=1 / ref=5 / deblock=1:-2:-2 / analyse=0x3:0x111 / me=umh / subme=9 / psy=1 / psy_rd=0.00:0.10 / mixed_ref=1 / me_range=32 / chroma_me=1 / trellis=2 / 8x8dct=1 / cqm=0 / deadzone=21,11 / fast_pskip=0 / chroma_qp_offset=-1 / threads=6 / lookahead_threads=1 / sliced_threads=0 / nr=0 / decimate=1 / interlaced=0 / bluray_compat=0 / constrained_intra=0 / bframes=5 / b_pyramid=2 / b_adapt=0 / b_bias=0 / direct=1 / weightb=1 / open_gop=0 / weightp=2 / keyint=250 / keyint_min=23 / scenecut=40 / intra_refresh=0 / rc_lookahead=50 / rc=2pass / mbtree=1 / bitrate=1650 / ratetol=1.0 / qcomp=0.60 / qpmin=0 / qpmax=69 / qpstep=4 / cplxblur=20.0 / qblur=0.5 / ip_ratio=1.40 / aq=1:1.00
Default : Yes
Forced : No
Audio
ID : 2
Format : AC-3
Format/Info : Audio Coding 3
Mode extension : CM (complete main)
Format settings, Endianness : Big
Codec ID : A_AC3
Duration : 1h 30mn
Bit rate mode : Constant
Bit rate : 384 Kbps
Channel(s) : 2 channels
Channel positions : Front: L R
Sampling rate : 48.0 KHz
Bit depth : 16 bits
Compression mode : Lossy
Stream size : 250 MiB (19%)
Title : mexanizmy.organizma_by_nyctalus
Language : Russian
Default : Yes
Forced : Yes



Релиз от: &



   Похожие торренты   Торрент   Размер 
В этой теме нет новых непрочитанных сообщений. Наше тело: уникальная машина: Мозг / Discovery Science. Human Body. Ultimate Machine (2013) HDTVRip от GeneralFilm

168 | 31

516.77 МБ

В этой теме нет новых непрочитанных сообщений. Discovery: Человеческое тело: Грани Возможного / Discovery: Human Body: Pushing the Limits (2008) DVDRip-AVC

23 | 8

1.7 ГБ

В этой теме нет новых непрочитанных сообщений. Discovery: Тело человека: Грани возможного / Discovery: Human body: Pushing the limits (2008) HDRip-AVC от potroks | P

8 | 3

3.41 ГБ

В этой теме нет новых непрочитанных сообщений. Discovery: Тело человека: Грани возможного / Human body: Pushing the limits [01-04 из 04] (2008) BDRip-AVC от MediaClub | P2

152 | 18

4.73 ГБ

В этой теме нет новых непрочитанных сообщений. Discovery: Тело человека: Грани возможного / Human body: Pushing the limits [01-04 из 04] (2008) BDRip 1080p от Filmoff CLUB

39 | 6

12.66 ГБ

В этой теме нет новых непрочитанных сообщений. Discovery. Проверено на себе / Heavy Body Hack [01 из 06] (2016) HDTVRip от GeneralFilm | P2

24 | 14

2.66 ГБ

В этой теме нет новых непрочитанных сообщений. Discovery. Проверено на себе / Heavy Body Hack [01 из 06] (2016) HDTVRip от GeneralFilm | P2

32 | 11

3.18 ГБ




Вы не можете начинать темы
Вы не можете отвечать на сообщения
Вы не можете редактировать свои сообщения
Вы не можете удалять свои сообщения
Вы не можете добавлять вложения

Перейти:  
Для Мосгорсуда, Роскомнадзора и рекламодателей: mosgorsud-torrent[собачка]yandex.ru
 Вход
ppkBB3cker v.2 © 2008-2014 @ PPK
[ Time : 0.040s | 15 Queries | GZIP : Off ]

cron