img image001 image001 image001 image001 image001 image001 image001 image001 image001 image001 image001 image001 image001 image001 image001

Planets Sun Sun Sun
Статистика раздачи
Автор: Снежана | Размер: 3.27 ГБ | Добавлен: 12 авг 2013
Раздают: 41    Качают: 34
Скачать торрент
Скачать торрент
Описание торрента

СообщениеДобавлено: 12 авг 2013 

#77

Название: Чудища морей: Доисторическое приключение
Оригинальное название: Sea Monsters: A Prehistoric Adventure
Год выпуска: 2007
Жанр: Мультфильм, документальный, приключения
Выпущено: США, Day's End Pictures, National Geographic Giant Screen Films
Режиссер: Шон Маклеод Филлипс
В ролях: Джерри Хоффман, Крис Глейз, Шерил Хантер, С.Дж. Джонсон, Майкл МакКоннохи

О фильме: Фильм-путешествие в малоизученный мир необычных (подводных) динозавров. Здесь тесно переплетаются красочная фотореалистическая анимация и уникальные палеонтологические находки со всего мира — сокровища, которые пролили свет на жизнь персонажей фильма.

Качество: BDRip 1080p
Видео: MPEG-4 AVC, 10.5 Мбит/с, 1920x1080
Аудио: Русский (AC3, 6 ch, 448 Кбит/с), английский (AC3, 6 ch, 640 Кбит/с)
Размер: 3.27 ГБ
Продолжительность: 00:39:34
Перевод: Любительский одноголосый закадровый
Субтитры: Английские

Сравнение с исходником



---[Information] [01.08.2013 16:40:53] avs [info]: 1920x1080p 1:1 @ 24000/1001 fps (cfr)
---[Information] [01.08.2013 16:40:53] x264 [info]: using SAR=1/1
---[Information] [01.08.2013 16:40:53] x264 [info]: using cpu capabilities: MMX2 SSE2Fast SSSE3 SSE4.2
---[Information] [01.08.2013 16:40:53] x264 [info]: profile High, level 4.1
---[Information] [01.08.2013 23:07:53] x264 [info]: frame I:317 Avg QP:15.99 size:185875
---[Information] [01.08.2013 23:07:54] x264 [info]: frame P:13955 Avg QP:16.98 size: 91886
---[Information] [01.08.2013 23:07:54] x264 [info]: frame B:42657 Avg QP:18.65 size: 43318
---[Information] [01.08.2013 23:07:54] x264 [info]: consecutive B-frames: 2.4% 4.2% 10.9% 25.9% 34.8% 17.2% 4.6%
---[Information] [01.08.2013 23:07:54] x264 [info]: mb I I16..4: 11.4% 81.2% 7.4%
---[Information] [01.08.2013 23:07:54] x264 [info]: mb P I16..4: 2.7% 41.9% 1.4% P16..4: 25.6% 12.8% 5.6% 0.0% 0.0% skip:10.0%
---[Information] [01.08.2013 23:07:54] x264 [info]: mb B I16..4: 1.2% 11.8% 0.2% B16..8: 35.8% 8.3% 2.0% direct:10.8% skip:30.0% L0:42.7% L1:43.8% BI:13.6%
---[Information] [01.08.2013 23:07:54] x264 [info]: 8x8 transform intra:90.0% inter:73.0%
---[Information] [01.08.2013 23:07:54] x264 [info]: coded y,uvDC,uvAC intra: 75.0% 68.7% 43.8% inter: 30.8% 30.9% 5.2%
---[Information] [01.08.2013 23:07:54] x264 [info]: i16 v,h,dc,p: 38% 21% 23% 18%
---[Information] [01.08.2013 23:07:54] x264 [info]: i8 v,h,dc,ddl,ddr,vr,hd,vl,hu: 9% 12% 34% 6% 7% 6% 8% 6% 11%
---[Information] [01.08.2013 23:07:54] x264 [info]: i4 v,h,dc,ddl,ddr,vr,hd,vl,hu: 9% 14% 10% 8% 13% 9% 15% 7% 14%
---[Information] [01.08.2013 23:07:54] x264 [info]: i8c dc,h,v,p: 55% 25% 14% 5%
---[Information] [01.08.2013 23:07:54] x264 [info]: Weighted P-Frames: Y:10.2% UV:7.8%
---[Information] [01.08.2013 23:07:54] x264 [info]: ref P L0: 51.7% 12.3% 24.2% 10.1% 1.7% 0.1%
---[Information] [01.08.2013 23:07:54] x264 [info]: ref B L0: 85.4% 11.4% 3.2%
---[Information] [01.08.2013 23:07:54] x264 [info]: ref B L1: 91.2% 8.8%
---[Information] [01.08.2013 23:07:54] x264 [info]: kb/s:10744.58
---[Information] [01.08.2013 23:07:54] encoded 56929 frames, 2.45 fps, 10744.58 kb/s
--[Information] [01.08.2013 23:07:58] Final statistics
---[Information] [01.08.2013 23:07:58] Constant Quality Mode: Quality 20 computed...
---[Information] [01.08.2013 23:07:58] Video Bitrate Obtained (approximate): 10746 kbit/s
--[Information] [01.08.2013 23:07:58] MediaInfo
---[Information] File: E:RipChudisha.morej.2007.x264.BDRip.1080pChudisha.morej.2007.x264.BDRip.1080p.mkv
Общее
Уникальный идентификатор : 221204197034347797570155103255999897831 (0xA66A60F1C77C706082B896DB052960E7)
Полное имя : E:VideoChudisha.morej.2007.x264.BDRip.1080p.mkv
Формат : Matroska
Версия формата : Version 4 / Version 2
Размер файла : 3,27 Гбайт
Продолжительность : 39 м.
Общий поток : 11,8 Мбит/сек
Название фильма : Чудища морей / Sea Monsters: A Prehistoric Adventure / 2007 / BDRip -- STarankov
Дата кодирования : UTC 2013-08-02 01:43:03
Программа кодирования : mkvmerge v6.3.0 ('You can't stop me!') built on Jun 28 2013 20:09:41
Библиотека кодирования : libebml v1.3.0 + libmatroska v1.4.0

Видео
Идентификатор : 1
Формат : AVC
Формат/Информация : Advanced Video Codec
Профиль формата : High@L4.1
Параметр CABAC формата : Да
Параметр ReFrames формата : 4 кадра
Идентификатор кодека : V_MPEG4/ISO/AVC
Продолжительность : 39 м.
Битрейт : 10,5 Мбит/сек
Ширина : 1920 пикселей
Высота : 1080 пикселей
Соотношение сторон : 16:9
Режим частоты кадров : Постоянный
Частота кадров : 23,976 кадра/сек
Цветовое пространство : YUV
Субдискретизация насыщенности : 4:2:0
Битовая глубина : 8 бит
Тип развёртки : Прогрессивная
Бит/(Пиксели*Кадры) : 0.211
Размер потока : 2,91 Гбайт (89%)
Библиотека кодирования : x264 core 135 r2345 f0c1c53
Настройки программы : cabac=1 / ref=4 / deblock=1:0:0 / analyse=0x3:0x113 / me=umh / subme=10 / psy=1 / psy_rd=1.00:0.15 / mixed_ref=1 / me_range=24 / chroma_me=1 / trellis=2 / 8x8dct=1 / cqm=0 / deadzone=21,11 / fast_pskip=0 / chroma_qp_offset=-3 / threads=6 / lookahead_threads=1 / sliced_threads=0 / nr=0 / decimate=1 / interlaced=0 / bluray_compat=0 / constrained_intra=0 / bframes=6 / b_pyramid=2 / b_adapt=2 / b_bias=0 / direct=1 / weightb=1 / open_gop=0 / weightp=2 / keyint=230 / keyint_min=23 / scenecut=40 / intra_refresh=0 / rc_lookahead=40 / rc=crf / mbtree=0 / crf=20.0 / qcomp=0.60 / qpmin=0 / qpmax=69 / qpstep=4 / vbv_maxrate=50000 / vbv_bufsize=62500 / crf_max=0.0 / nal_hrd=none / ip_ratio=1.40 / pb_ratio=1.30 / aq=1:1.00
Язык : English
Default : Да
Forced : Нет

Аудио #1
Идентификатор : 2
Формат : AC-3
Формат/Информация : Audio Coding 3
Расширение режима : CM (complete main)
Параметр Endianness формата : Big
Идентификатор кодека : A_AC3
Продолжительность : 39 м.
Вид битрейта : Постоянный
Битрейт : 448 Кбит/сек
Каналы : 6 каналов
Расположение каналов : Front: L C R, Side: L R, LFE
Частота : 48,0 КГц
Битовая глубина : 16 бит
Метод сжатия : С потерями
Размер потока : 127 Мбайт (4%)
Заголовок : VO (любительский одноголосый)
Язык : Russian
Default : Да
Forced : Нет

Аудио #2
Идентификатор : 3
Формат : AC-3
Формат/Информация : Audio Coding 3
Расширение режима : CM (complete main)
Параметр Endianness формата : Big
Идентификатор кодека : A_AC3
Продолжительность : 39 м.
Вид битрейта : Постоянный
Битрейт : 640 Кбит/сек
Каналы : 6 каналов
Расположение каналов : Front: L C R, Side: L R, LFE
Частота : 48,0 КГц
Битовая глубина : 16 бит
Метод сжатия : С потерями
Размер потока : 181 Мбайт (5%)
Заголовок : Original
Язык : English
Default : Нет
Forced : Нет

Текст
Идентификатор : 4
Формат : UTF-8
Идентификатор кодека : S_TEXT/UTF8
Идентификатор кодека/Информация : UTF-8 Plain Text
Заголовок : английский (для слабослышащих)
Язык : English
Default : Нет
Forced : Нет





   Похожие торренты   Торрент   Размер 
В этой теме нет новых непрочитанных сообщений. National Geographic:Чудища морей: Доисторическое Приключение / National Geographic:Sea Monsters: A Prehistoric Adventure (2007) BDRip

8 | 13

700.18 МБ

В этой теме нет новых непрочитанных сообщений. National Geographic: Чудища морей: Доисторическое Приключение / National Geographic: Sea Monsters: A Prehistoric Adventure (2007) BDRip 720p

14 | 5

2.19 ГБ

В этой теме нет новых непрочитанных сообщений. National Geographic. Доисторические хищники / National Geographic. Prehistoric Predators [5 из 7] (2007-2009) HDTVRip 720p

314 | 46

6.09 ГБ

В этой теме нет новых непрочитанных сообщений. National Geographic: Путешествие на край Вселенной / National Geographic: Journey to the Edge of the Universe (2008) BDRip 1080p

156 | 22

6.82 ГБ

В этой теме нет новых непрочитанных сообщений. National Geographic: Удивительная планета (3 серии из 3) / National Geographic: Amazing Planet (2006) BDRip 1080p от FREEISLAND

10 | 8

6.56 ГБ

В этой теме нет новых непрочитанных сообщений. National Geographic: Жизнь среди больших кошек / National Geographic: Living with Big Cats (2007) HDTVRip от ExKinoRay

0 | 9

666.38 МБ

В этой теме нет новых непрочитанных сообщений. National Geographic. Суперсооружения: Гавайский суперпаром / National Geographic. MegaStructures: Hawaii Super Ferry (2007) SATRip от tenow

7 | 5

500.34 МБ




Вы не можете начинать темы
Вы не можете отвечать на сообщения
Вы не можете редактировать свои сообщения
Вы не можете удалять свои сообщения
Вы не можете добавлять вложения

Перейти:  
Для Мосгорсуда, Роскомнадзора и рекламодателей: mosgorsud-torrent[собачка]yandex.ru
 Вход
ppkBB3cker v.2 © 2008-2014 @ PPK
[ Time : 0.036s | 14 Queries | GZIP : Off ]

Торрент трекер RUTOR.IN, Не можете зайти на rutor.org? Какой новый адрес рутор? Какое зеркало рутор? Не работает rutor.org и зеркала? Тогда наш торрент специально для вас. Rutor.in неофициальное зеркало rutor. В случае если у Вас заблокирован rutor или вдруг Вы не можете на него зайти, то Вы без труда сможете скачать бесплатно и без рекламы последние новинки кино, игр, сериалов и прочего у нас, на Rutor.in. Не нужно использовать прокси, чтобы зайти на рутор, достаточно воспользоваться нашим ресурсом. Все новые фильмы, игры, сериалы, книги и музыка за 2013 и 2014 годы через торрент бесплатно. Скачивайте фильмы в хорошем качестве, игры для пк, xbox, playstation без регистрации. У нас вы найдете новые Зарубежные сериалы и Русские сериалы 2013, 2014, 2015 годов. Оставайтесь с нами, качайте любимые фильмы, игры, сериалы, книги и музыку.