img image001 image001 image001 image001 image001 image001 image001 image001 image001 image001 image001 image001 image001 image001 image001

Planets Sun Sun Sun
Статистика раздачи
Автор: Снежана | Размер: 699.54 МБ | Добавлен: 12 авг 2013
Раздают: 271    Качают: 19
Скачать торрент
Скачать торрент
Описание торрента

СообщениеДобавлено: 12 авг 2013 

20 животных, которые могут вас убить
20 Animals that Will Kill You



#77

Год выпуска: 2012
Страна: США
Жанр: Документальный
Продолжительность: 00:44:59
Перевод: Профессиональный (дублированный) | Денис Некрасов / АРК·ТВ
Комментарии экспертов - Профессиональный (одноголосый закадровый)
Русские субтитры: нет


Режиссер: Дженнифер Шумейкер / Jennifer Shoemaker

Описание: Дикие животные убивают тысячи людей каждый день - и самыми опасными существами могут оказаться не те животные, о которых вы можете подумать. Бенгальские тигры, слоны, комары - животные могут убивать множеством разных способов. Хищники очевидно являются убийцами, а другие животные защищают свою территорию, нападают в целях самообороны или убивают совершенно случайно. Эксперты по дикой природе обсуждают некоторые из наиболее показательных атак, снятых на пленку, чтобы понять, какие животные убивают самое большое количество людей, как они это делают и почему.


Автор рипа: Leo.pard
Исходник: HDTV 1080i Спасибо LeXa 84!


Kачество: HDTVRip
Формат: AVI
Видео: XviD, 720x400 (16:9), 1972 Kbps, 25 fps
Аудио: MP2, 192 Kbps, 48 KHz, 2 channels

Сэмпл: http://multi-up.com/891299

General
Complete name : D:20.zhivotnyh,.kotorye.mogut.vas.ubit'.2012.HDTVRip.avi
Format : AVI
Format/Info : Audio Video Interleave
File size : 700 MiB
Duration : 44mn 59s
Overall bit rate : 2 174 Kbps
Writing application : VirtualDubMod 1.5.10.3 | www.virtualdub-fr.org || (build 2550/release)
Writing library : VirtualDubMod build 2550/release

Video
ID : 0
Format : MPEG-4 Visual
Format profile : Advanced Simple@L5
Format settings, BVOP : 1
Format settings, QPel : No
Format settings, GMC : No warppoints
Format settings, Matrix : Custom
Codec ID : XVID
Codec ID/Hint : XviD
Duration : 44mn 59s
Bit rate : 1 972 Kbps
Width : 720 pixels
Height : 400 pixels
Display aspect ratio : 16:9
Frame rate : 25.000 fps
Color space : YUV
Chroma subsampling : 4:2:0
Bit depth : 8 bits
Scan type : Progressive
Compression mode : Lossy
Bits/(Pixel*Frame) : 0.274
Stream size : 635 MiB (91%)
Writing library : XviD 73

Audio
ID : 1
Format : MPEG Audio
Format version : Version 1
Format profile : Layer 2
Codec ID : 50
Duration : 44mn 59s
Bit rate mode : Constant
Bit rate : 192 Kbps
Channel(s) : 2 channels
Sampling rate : 48.0 KHz
Compression mode : Lossy
Stream size : 61.8 MiB (9%)
Alignment : Aligned on interleaves
Interleave, duration : 40 ms (1.00 video frame)
Interleave, preload duration : 504 ms










   Похожие торренты   Торрент   Размер 
В этой теме нет новых непрочитанных сообщений. Nat Geo Wild: 20 животных, которые могут вас убить / 20 Animals that Will Kill You (2012) HDTVRip-AVC от Leo.pard | D

56 | 6

700.59 МБ

В этой теме нет новых непрочитанных сообщений. Nat Geo Wild: В объективе: необычное поведение животных / Caught in the Act [01-18] (2007-2012) HDTVRip от Leo.pard | P1

2 | 4

12.31 ГБ

В этой теме нет новых непрочитанных сообщений. Убить Билла 2 / Kill Bill: Vol. 2 (2004) BDRip-AVC от Leo.pard and Scarabey | Лицензия

418 | 19

758.22 МБ

В этой теме нет новых непрочитанных сообщений. Убить Билла / Kill Bill: Vol. 1 (2003) BDRip-AVC от Leo.pard and Scarabey | Лицензия

395 | 29

745.34 МБ

В этой теме нет новых непрочитанных сообщений. Nat Geo Wild: Дикая сторона кошек / Wild Side of Cats (2012) HDTVRip-AVC от Leo.pard | P1

4 | 2

700.55 МБ

В этой теме нет новых непрочитанных сообщений. Nat Geo Wild: Дикая сторона кошек / Wild Side of Cats (2012) HDTVRip от Leo.pard | P1

2 | 2

700.43 МБ

В этой теме нет новых непрочитанных сообщений. Nat Geo Wild: Суперкошка / Super Cat (2012) HDTVRip от Leo.pard | P1

168 | 24

700.44 МБ




Вы не можете начинать темы
Вы не можете отвечать на сообщения
Вы не можете редактировать свои сообщения
Вы не можете удалять свои сообщения
Вы не можете добавлять вложения

Перейти:  
Для Мосгорсуда, Роскомнадзора и рекламодателей: mosgorsud-torrent[собачка]yandex.ru
 Вход
ppkBB3cker v.2 © 2008-2014 @ PPK
[ Time : 0.039s | 15 Queries | GZIP : Off ]

Торрент трекер RUTOR.IN, Не можете зайти на rutor.org? Какой новый адрес рутор? Какое зеркало рутор? Не работает rutor.org и зеркала? Тогда наш торрент специально для вас. Rutor.in неофициальное зеркало rutor. В случае если у Вас заблокирован rutor или вдруг Вы не можете на него зайти, то Вы без труда сможете скачать бесплатно и без рекламы последние новинки кино, игр, сериалов и прочего у нас, на Rutor.in. Не нужно использовать прокси, чтобы зайти на рутор, достаточно воспользоваться нашим ресурсом. Все новые фильмы, игры, сериалы, книги и музыка за 2013 и 2014 годы через торрент бесплатно. Скачивайте фильмы в хорошем качестве, игры для пк, xbox, playstation без регистрации. У нас вы найдете новые Зарубежные сериалы и Русские сериалы 2013, 2014, 2015 годов. Оставайтесь с нами, качайте любимые фильмы, игры, сериалы, книги и музыку.
cron