img image001 image001 image001 image001 image001 image001 image001 image001 image001 image001 image001 image001 image001 image001 image001

Planets Sun Sun Sun
Статистика раздачи
Автор: Снежана | Размер: 700.36 МБ | Добавлен: 12 авг 2013
Раздают: 22    Качают: 6
Скачать торрент
Скачать торрент
Описание торрента

СообщениеДобавлено: 12 авг 2013 

Йеллоустон – поле битвы. Долина гризли
Долина гризли или Поле битвы - Йеллоустоун
Yellowstone Battleground. Grizzly Cauldron



#77

Год выпуска: 2009
Страна: США
Жанр: Документальный
Продолжительность: 00:46:59
Перевод: Профессиональный (дублированный) | Пётр Тобилевич / АРК·ТВ
Русские субтитры: нет


Режиссер: Боб Лэндис / Bob Landis

Описание: Когда-то в отдалённой глуши национального парка Йеллоустон правили одни медведи гризли. Никто не мог бросить вызов этим могучим животным, которые долгое время не знали себе равных по размерам и силе. Однако недавно произошло появление достойного соперника, и теперь права на местную территорию заявляют северные бродячие волки.


Автор рипа: Leo.pard
Исходник: HDTV 1080i Спасибо LeXa 84!


Kачество: HDTVRip
Формат: AVI
Видео: XviD, 720x400 (16:9), 1882 Kbps, 25 fps
Аудио: MP2, 192 Kbps, 48 KHz, 2 channels

Сэмпл: http://multi-up.com/891544

General
Complete name : D:Jellouston–pole.bitvy.Dolina.grizli.2009.HDTVRip.avi
Format : AVI
Format/Info : Audio Video Interleave
File size : 700 MiB
Duration : 46mn 59s
Overall bit rate : 2 084 Kbps
Writing application : VirtualDubMod 1.5.10.3 | www.virtualdub-fr.org || (build 2550/release)
Writing library : VirtualDubMod build 2550/release

Video
ID : 0
Format : MPEG-4 Visual
Format profile : Advanced Simple@L5
Format settings, BVOP : 1
Format settings, QPel : No
Format settings, GMC : No warppoints
Format settings, Matrix : Custom
Codec ID : XVID
Codec ID/Hint : XviD
Duration : 46mn 59s
Bit rate : 1 882 Kbps
Width : 720 pixels
Height : 400 pixels
Display aspect ratio : 16:9
Frame rate : 25.000 fps
Color space : YUV
Chroma subsampling : 4:2:0
Bit depth : 8 bits
Scan type : Progressive
Compression mode : Lossy
Bits/(Pixel*Frame) : 0.261
Stream size : 633 MiB (90%)
Writing library : XviD 73

Audio
ID : 1
Format : MPEG Audio
Format version : Version 1
Format profile : Layer 2
Codec ID : 50
Duration : 46mn 59s
Bit rate mode : Constant
Bit rate : 192 Kbps
Channel(s) : 2 channels
Sampling rate : 48.0 KHz
Compression mode : Lossy
Stream size : 64.5 MiB (9%)
Alignment : Aligned on interleaves
Interleave, duration : 40 ms (1.00 video frame)
Interleave, preload duration : 504 ms







   Похожие торренты   Торрент   Размер 
В этой теме нет новых непрочитанных сообщений. Nat Geo Wild: Йеллоустон – поле битвы. Долина гризли / Yellowstone Battleground. Grizzly Cauldron (2009) HDTVRip-AVC от Leo.pard | D

28 | 8

700.3 МБ

В этой теме нет новых непрочитанных сообщений. Поле битвы / Battleground (1949) DVDRip - Generalfilm

0 | 2

1.46 ГБ

В этой теме нет новых непрочитанных сообщений. Морпех 5: Поле битвы / The Marine 5: Battleground (2017) WEB-DLRip | L

69 | 0

1.37 ГБ

В этой теме нет новых непрочитанных сообщений. Морпех 5: Поле битвы / The Marine 5: Battleground (2017) HDRip | Лицензия

178 | 13

1.37 ГБ

В этой теме нет новых непрочитанных сообщений. Морпех 5: Поле битвы / The Marine 5: Battleground (2017) HDRip от MegaPeer | Лицензия

113 | 9

745.86 МБ

В этой теме нет новых непрочитанных сообщений. Морской пехотинец 5: Поле битвы / The Marine 5: Battleground (2017) BDRip 720p | P

76 | 11

4.66 ГБ

В этой теме нет новых непрочитанных сообщений. Морпех 5: Поле битвы / The Marine 5: Battleground (2017) BDRip от MegaPeer | Лицензия

66 | 1

1.46 ГБ




Вы не можете начинать темы
Вы не можете отвечать на сообщения
Вы не можете редактировать свои сообщения
Вы не можете удалять свои сообщения
Вы не можете добавлять вложения

Перейти:  
Для Мосгорсуда, Роскомнадзора и рекламодателей: mosgorsud-torrent[собачка]yandex.ru
 Вход
ppkBB3cker v.2 © 2008-2014 @ PPK
[ Time : 0.042s | 17 Queries | GZIP : Off ]

cron