img image001 image001 image001 image001 image001 image001 image001 image001 image001 image001 image001 image001 image001 image001 image001

Planets Sun Sun Sun
Статистика раздачи
Автор: Снежана | Размер: 971.03 МБ | Добавлен: 12 авг 2013
Раздают: 77    Качают: 5
Скачать торрент
Скачать торрент
Описание торрента

СообщениеДобавлено: 12 авг 2013 

#77

Информация о фильме
Название: Багамские острова: Таинственные пещеры и затонувшие корабли
Оригинальное название: Adventure Bahamas - mysterious caves & wrecks
Год выхода: 2012
Жанр: Документальный, подводный мир
Режиссер: Юрген Климмек

О фильме: Багамские острова давно стали синонимом удивительных и загадочных приключений. Живописный архипелаг в Атлантическом океане между Кубой и Флоридой, насчитывающий около 2500 рифов и 700 островов, давно стал настоящей Меккой для любителей экстремального дайвинга. Уникальные съемки красот подводного мира, древних пещер и затонувших кораблей, откроют все тайны океана истинным любителям морских глубин...



Выпущено: Германия, NEW KSM
Продолжительность: 00:52:32
Перевод: Профессиональный одноголосый
Дата релиза: 06.08.2013

Файл
Кодек: Н264
Качество: BDRiр (AVC)
Видео: MPEG-4 AVC, 2199 Кбит/с, 1024x576
Звук: AC3, 6 ch, 384 Кбит/с

Format : Matroska
File size : 971 MiB
Duration : 52mn 32s
Overall bit rate : 2 584 Kbps
Movie name : Bagamskie.ostrova.tainstvennye.peshhery.i.zatonuvshie.korabli.2012.x264.BDRip.(AVC).ExKinoRay
Encoded date : UTC 2013-08-02 13:24:33
Writing application : mkvmerge v4.0.0 ('The Stars were mine') сборка от Jun 6 2010 16:18:42
Writing library : libebml v1.0.0 + libmatroska v1.0.0

Video
ID : 1
Format : AVC
Format/Info : Advanced Video Codec
Format profile : High@L4.1
Format settings, CABAC : Yes
Format settings, ReFrames : 8 frames
Codec ID : V_MPEG4/ISO/AVC
Duration : 52mn 32s
Bit rate : 2 199 Kbps
Width : 1 024 pixels
Height : 576 pixels
Display aspect ratio : 16:9
Frame rate : 23.976 fps
Color space : YUV
Chroma subsampling : 4:2:0
Bit depth : 8 bits
Scan type : Progressive
Bits/(Pixel*Frame) : 0.155
Stream size : 807 MiB (83%)
Title : Rip by Enigma-Vladislav71
Writing library : x264 core 129 r2245 bc13772
Encoding settings : cabac=1 / ref=8 / deblock=1:-2:-2 / analyse=0x3:0x133 / me=umh / subme=11 / psy=1 / psy_rd=1.00:0.00 / mixed_ref=1 / me_range=48 / chroma_me=1 / trellis=2 / 8x8dct=1 / cqm=0 / deadzone=21,11 / fast_pskip=0 / chroma_qp_offset=-2 / threads=3 / lookahead_threads=1 / sliced_threads=0 / nr=0 / decimate=0 / interlaced=0 / bluray_compat=0 / constrained_intra=0 / bframes=8 / b_pyramid=2 / b_adapt=2 / b_bias=0 / direct=3 / weightb=1 / open_gop=0 / weightp=2 / keyint=240 / keyint_min=23 / scenecut=40 / intra_refresh=0 / rc_lookahead=40 / rc=2pass / mbtree=1 / bitrate=2199 / ratetol=1.0 / qcomp=0.60 / qpmin=10 / qpmax=51 / qpstep=4 / cplxblur=20.0 / qblur=0.5 / ip_ratio=1.40 / aq=2:1.00
Language : English

Audio
ID : 2
Format : AC-3
Format/Info : Audio Coding 3
Mode extension : CM (complete main)
Codec ID : A_AC3
Duration : 52mn 32s
Bit rate mode : Constant
Bit rate : 384 Kbps
Channel(s) : 6 channels
Channel positions : Front: L C R, Side: L R, LFE
Sampling rate : 48.0 KHz
Bit depth : 16 bits
Compression mode : Lossy
Stream size : 144 MiB (15%)
Language : Russian





Релиз от:

Авторы релиза:



   Похожие торренты   Торрент   Размер 
В этой теме нет новых непрочитанных сообщений. Багамские острова: Таинственные пещеры и затонувшие корабли / Adventure Bahamas (2012) BDRip от ExKinoRay

144 | 5

700.7 МБ

В этой теме нет новых непрочитанных сообщений. Багамские острова: Таинственные пещеры и затонувшие корабли / Adventure Bahamas: Mysterious Caves And Wrecks (2012) BDRip 1080 | 3D-Video

26 | 4

6.41 ГБ

В этой теме нет новых непрочитанных сообщений. Багамские острова: Таинственные пещеры и затонувшие корабли / Adventure Bahamas: Mysterious Caves And Wrecks (2012) BDRip 720p от NNNB

189 | 8

2.61 ГБ

В этой теме нет новых непрочитанных сообщений. Багамские острова: Таинственные пещеры и затонувшие корабли / Adventure Bahamas - mysterious caves & wrecks (2013) DVDRip-AVC

4 | 7

730.87 МБ

В этой теме нет новых непрочитанных сообщений. Карибские острова : Погружение с акулами / Adventure Carribean : Diving With Sharks (2012) BDRip-AVC от ExKinoRay

1 | 2

914.2 МБ

В этой теме нет новых непрочитанных сообщений. Карибские острова : Погружение с акулами / Adventure Carribean : Diving With Sharks (2012) BDRip от ExKinoRay

0 | 2

700.61 МБ

В этой теме нет новых непрочитанных сообщений. Золотой глобус. Выпуск 84. Багамские острова. Коралловая гавань (2011) DVDRip от KinoZalSat

6 | 3

700.37 МБ




Вы не можете начинать темы
Вы не можете отвечать на сообщения
Вы не можете редактировать свои сообщения
Вы не можете удалять свои сообщения
Вы не можете добавлять вложения

Перейти:  
Для Мосгорсуда, Роскомнадзора и рекламодателей: mosgorsud-torrent[собачка]yandex.ru
 Вход
ppkBB3cker v.2 © 2008-2014 @ PPK
[ Time : 0.063s | 14 Queries | GZIP : Off ]

Торрент трекер RUTOR.IN, Не можете зайти на rutor.org? Какой новый адрес рутор? Какое зеркало рутор? Не работает rutor.org и зеркала? Тогда наш торрент специально для вас. Rutor.in неофициальное зеркало rutor. В случае если у Вас заблокирован rutor или вдруг Вы не можете на него зайти, то Вы без труда сможете скачать бесплатно и без рекламы последние новинки кино, игр, сериалов и прочего у нас, на Rutor.in. Не нужно использовать прокси, чтобы зайти на рутор, достаточно воспользоваться нашим ресурсом. Все новые фильмы, игры, сериалы, книги и музыка за 2013 и 2014 годы через торрент бесплатно. Скачивайте фильмы в хорошем качестве, игры для пк, xbox, playstation без регистрации. У нас вы найдете новые Зарубежные сериалы и Русские сериалы 2013, 2014, 2015 годов. Оставайтесь с нами, качайте любимые фильмы, игры, сериалы, книги и музыку.