img image001 image001 image001 image001 image001 image001 image001 image001 image001 image001 image001 image001 image001 image001 image001

Planets Sun Sun Sun
Статистика раздачи
Автор: Снежана | Размер: 728.39 МБ | Добавлен: 12 авг 2013
Раздают: 28    Качают: 5
Скачать торрент
Скачать торрент
Описание торрента

СообщениеДобавлено: 12 авг 2013 


Инфомация о фильме
Название: Горбатые киты. Из огня в лёд
Оригинальное название: Humpbacks. From Fire to Ice
Год выхода: 2008
Жанр: Документальный, научно-популярный
Режиссер: Росс Айзекс
О фильме
Самка горбатого кита и ее детеныш... Это рассказ о них. Повесть о первом годе жизни новорожденного кита. У детеныша есть 12 месяцев, чтобы узнать премудрости жизни, 12 месяцев, чтобы научиться выживать в этом полном опасностей подводном мире. Мы проследуем за самками и детенышами горбатых китов во время сезонной миграции через северную часть Тихого океана - от вулканов, расположенных на Гавайских островах, к ледниками и айсбергам в холодных водах юго-восточной Аляски. Это путешествие из огня в лед...
Страна: Австралия, США
Студия: Ocean Planet Images, KOHOLA Pty Ltd, YNR Marketing
Продолжительность: 00:52:47
Перевод: Профессиональный(одноголосый)
Файл
Формат: MKV
Качество: HDRip-AVC
Видео: MPEG4 AVC, 1024 x 576, 23.976 fps, 1800 - 1929 Кбит/с
Звук: AC-3, 2 ch, 128 Кбит/с
Субтитры: Нет

General
Unique ID : 228211974897174775726855599306125658829 (0xABB00711983534B6A46C6A34A9A8CACD)
Complete name : D:DownloadsСделанные фильмыGorbatye.kity.Iz.ognja.v.led.2008.x264.HDRip.(AVC).by.HD-NET.mkv
Format : Matroska
Format version : Version 2
File size : 728 MiB
Duration : 52mn 47s
Overall bit rate : 1 929 Kbps
Encoded date : UTC 2013-08-06 05:39:49
Writing application : mkvmerge v6.1.0 ('Old Devil') built on Mar 4 2013 09:10:42
Writing library : libebml v1.3.0 + libmatroska v1.4.0
Video
ID : 1
Format : AVC
Format/Info : Advanced Video Codec
Format profile : High@L4.1
Format settings, CABAC : Yes
Format settings, ReFrames : 5 frames
Codec ID : V_MPEG4/ISO/AVC
Duration : 52mn 47s
Bit rate : 1 800 Kbps
Width : 1 024 pixels
Height : 576 pixels
Display aspect ratio : 16:9
Frame rate mode : Constant
Frame rate : 23.976 fps
Color space : YUV
Chroma subsampling : 4:2:0
Bit depth : 8 bits
Scan type : Progressive
Bits/(Pixel*Frame) : 0.127
Stream size : 666 MiB (91%)
Writing library : x264 core 130 r2273 b3065e6
Encoding settings : cabac=1 / ref=5 / deblock=1:-2:-2 / analyse=0x3:0x111 / me=umh / subme=9 / psy=1 / psy_rd=0.00:0.10 / mixed_ref=1 / me_range=32 / chroma_me=1 / trellis=2 / 8x8dct=1 / cqm=0 / deadzone=21,11 / fast_pskip=0 / chroma_qp_offset=-1 / threads=6 / lookahead_threads=1 / sliced_threads=0 / nr=0 / decimate=1 / interlaced=0 / bluray_compat=0 / constrained_intra=0 / bframes=5 / b_pyramid=2 / b_adapt=0 / b_bias=0 / direct=1 / weightb=1 / open_gop=0 / weightp=2 / keyint=250 / keyint_min=23 / scenecut=40 / intra_refresh=0 / rc_lookahead=50 / rc=2pass / mbtree=1 / bitrate=1800 / ratetol=1.0 / qcomp=0.60 / qpmin=0 / qpmax=69 / qpstep=4 / cplxblur=20.0 / qblur=0.5 / ip_ratio=1.40 / aq=1:1.00
Default : Yes
Forced : No
Audio
ID : 2
Format : AC-3
Format/Info : Audio Coding 3
Mode extension : CM (complete main)
Format settings, Endianness : Big
Codec ID : A_AC3
Duration : 52mn 47s
Bit rate mode : Constant
Bit rate : 128 Kbps
Channel(s) : 2 channels
Channel positions : Front: L R
Sampling rate : 48.0 KHz
Bit depth : 16 bits
Compression mode : Lossy
Stream size : 48.3 MiB (7%)
Title : gorbatye.kity
Language : Russian
Default : Yes
Forced : Yes



Релиз от: &



   Похожие торренты   Торрент   Размер 
В этой теме нет новых непрочитанных сообщений. Власть огня / Reign of Fire (2002) HDRip

100 | 8

745.87 МБ

В этой теме нет новых непрочитанных сообщений. Чон И: Богиня огня / Богиня огня Чонги / Bool-ui Yeosin Jungyi / Jung Yi, The Goddess of Fire [01-32 из 32] (2013) HDTVRip | L1

79 | 23

23.13 ГБ

В этой теме нет новых непрочитанных сообщений. Морпехи 2 : Поле Огня / Jarhead 2: Field of Fire (2014) HDRip | L1

415 | 26

749.16 МБ

В этой теме нет новых непрочитанных сообщений. Морпехи 2 : Поле Огня / Jarhead 2: Field of Fire (2014) HDRip | D | Лицензия

351 | 32

746.72 МБ

В этой теме нет новых непрочитанных сообщений. Остров огня / Island of fire / Huo shao dao (1990) HDRip от KinoRay & Sheikn | P

44 | 12

700.92 МБ

В этой теме нет новых непрочитанных сообщений. Морпехи 2: Поле Огня / Jarhead 2: Field of Fire (2014) HDRip от ImperiaFilm | КПК | L1

92 | 9

350.67 МБ

В этой теме нет новых непрочитанных сообщений. Гарри Поттер и кубок огня / Harry Potter and the Goblet of Fire (2005) HDRip от Scarabey | D

2583 | 79

1.45 ГБ




Вы не можете начинать темы
Вы не можете отвечать на сообщения
Вы не можете редактировать свои сообщения
Вы не можете удалять свои сообщения
Вы не можете добавлять вложения

Перейти:  
Для Мосгорсуда, Роскомнадзора и рекламодателей: mosgorsud-torrent[собачка]yandex.ru
 Вход
ppkBB3cker v.2 © 2008-2014 @ PPK
[ Time : 0.043s | 14 Queries | GZIP : Off ]

Торрент трекер RUTOR.IN, Не можете зайти на rutor.org? Какой новый адрес рутор? Какое зеркало рутор? Не работает rutor.org и зеркала? Тогда наш торрент специально для вас. Rutor.in неофициальное зеркало rutor. В случае если у Вас заблокирован rutor или вдруг Вы не можете на него зайти, то Вы без труда сможете скачать бесплатно и без рекламы последние новинки кино, игр, сериалов и прочего у нас, на Rutor.in. Не нужно использовать прокси, чтобы зайти на рутор, достаточно воспользоваться нашим ресурсом. Все новые фильмы, игры, сериалы, книги и музыка за 2013 и 2014 годы через торрент бесплатно. Скачивайте фильмы в хорошем качестве, игры для пк, xbox, playstation без регистрации. У нас вы найдете новые Зарубежные сериалы и Русские сериалы 2013, 2014, 2015 годов. Оставайтесь с нами, качайте любимые фильмы, игры, сериалы, книги и музыку.