img image001 image001 image001 image001 image001 image001 image001 image001 image001 image001 image001 image001 image001 image001 image001

Planets Sun Sun Sun
Статистика раздачи
Автор: Снежана | Размер: 745.5 МБ | Добавлен: 12 авг 2013
Раздают: 10    Качают: 5
Скачать торрент
Скачать торрент
Описание торрента

СообщениеДобавлено: 12 авг 2013 

Стамбул - город императоров и султанов



#77
Год выпуска: 2006
Страна: Германия
Студия: Komplett-Media GmbH
Жанр: документальный
Продолжительность: 01:00:42

Перевод: Профессиональный (дикторский закадровый)
Субтитры: нет
Оригинальная аудиодорожка: нет

Описание:
Фильм состоит из 8 частей. Византийское наследие, Цистерна базилика, Большой базар, Айя-София, Дворец султана, Принцевы острова, Голубая мечеть, Топкапы.
В этом путешествии Вы:
- начнёте осмотр у впечатляющего дворца Топкалы XVI века, где одновременно могли находиться 5 тысяч человек;
- познакомитесь с постройками древнего мира, в том числе с Цистерной Базилика и Змеиной колонной V века до н.э., а также осмотрите руины резиденции римских императоров;
- с восхищением полюбуетесь собором Айя-София VI века, который вначале был византийским храмом, а затем мечетью, - а также Голубой мечетью XVII века, окруженной 6 минаретами;
- откроете для себя очарование квартала Фенер, в котором с середины XV века селилась византийская аристократия;
- познакомитесь с атмосферой мусульманских районов, сосредоточенных, в том числе, вокруг мечети Сулеймана Великолепного, мечети Баязет и Новой мечети;
- завершите путешествие круизом по проливу Босфор, с которого открывается удивительная панорама древнего Стамбула.





Исходник: DVD5 R5
Тип релиза: DVDRip
Контейнер: AVI

Видео: 704x400 (16:9), 25 fps, XviD ~ 1319 kbps avg, 0.187 bit/pixel
Аудио: 48 kHz, Dolby AC3 2.0, 192.00 kbps Русский
Аудио: 48 kHz, Dolby AC3 2.0, 192.00 kbps Украинский

Раздача от:
Общее
Полное имя : Stambul.gorod.imperatorov.i.sultanov.DVDRip_[Youtracker]_by_AVP Studio.avi
Формат : AVI
Формат/Информация : Audio Video Interleave
Размер файла : 745 Мбайт
Продолжительность : 1 ч. 0 м.
Общий поток : 1717 Кбит/сек
Программа кодирования : VirtualDubModRus 1.5.10.2 (build 2542/release)
Библиотека кодирования : VirtualDubMod build 2542/release

Видео
Идентификатор : 0
Формат : MPEG-4 Visual
Профиль формата : Advanced Simple@L5
Параметр BVOP формата : 1
Параметр QPel формата : Нет
Параметр GMC формата : Без точки перехода
Параметр матрицы формата : Выборочная
Идентификатор кодека : XVID
Идентификатор кодека/Подсказка : XviD
Продолжительность : 1 ч. 0 м.
Битрейт : 1319 Кбит/сек
Ширина : 704 пикселя
Высота : 400 пикселей
Соотношение сторон : 16:9
Частота кадров : 25,000 кадров/сек
Цветовое пространство : YUV
Субдискретизация насыщенности : 4:2:0
Битовая глубина : 8 бит
Тип развёртки : Прогрессивная
Метод сжатия : С потерями
Бит/(Пиксели*Кадры) : 0.187
Размер потока : 573 Мбайт (77%)
Библиотека кодирования : XviD 65

Аудио #1
Идентификатор : 1
Формат : AC-3
Формат/Информация : Audio Coding 3
Расширение режима : CM (complete main)
Идентификатор кодека : 2000
Продолжительность : 1 ч. 0 м.
Вид битрейта : Постоянный
Битрейт : 192 Кбит/сек
Каналы : 2 канала
Расположение каналов : Front: L R
Частота : 48,0 КГц
Битовая глубина : 16 бит
Метод сжатия : С потерями
Размер потока : 83,1 Мбайт (11%)
Выравнивание : Разделение по промежуткам
Продолжительность промежутка : 40 мс. (1,00 видеокадр)
Время предзагрузки промежутка : 500 мс.

Аудио #2
Идентификатор : 2
Формат : AC-3
Формат/Информация : Audio Coding 3
Расширение режима : CM (complete main)
Идентификатор кодека : 2000
Продолжительность : 1 ч. 0 м.
Вид битрейта : Постоянный
Битрейт : 192 Кбит/сек
Каналы : 2 канала
Расположение каналов : Front: L R
Частота : 48,0 КГц
Битовая глубина : 16 бит
Метод сжатия : С потерями
Размер потока : 83,1 Мбайт (11%)
Выравнивание : Разделение по промежуткам
Продолжительность промежутка : 40 мс. (1,00 видеокадр)
Время предзагрузки промежутка : 500 мс.





   Похожие торренты   Торрент   Размер 
В этой теме нет новых непрочитанных сообщений. Стамбул. Видеоприложение к журналу «Путешествие по Европе» Выпуск №19: Стамбул (2006) DVD5 R5 от Youtracker

8 | 8

2.88 ГБ

В этой теме нет новых непрочитанных сообщений. Видеоприложение к журналу «Путешествие по Европе» Выпуск №19: Стамбул (2006) DVDRip-AVC от Youtracker

16 | 2

744.02 МБ

В этой теме нет новых непрочитанных сообщений. Видеоприложение к журналу «Путешествие по Европе» Выпуск №22: Майорка (2006) DVDRip от Youtracker

27 | 6

744.96 МБ

В этой теме нет новых непрочитанных сообщений. Видеоприложение к журналу «Путешествие по Европе» Выпуск №22: Майорка (2006) DVDRip от Youtracker

14 | 9

1.46 ГБ

В этой теме нет новых непрочитанных сообщений. Путешествие по Европе. Выпуск №22: Майорка (2006) DVDRip-AVC от New-Team

0 | 2

1.46 ГБ

В этой теме нет новых непрочитанных сообщений. Видеоприложение к журналу Рыбалка на Руси. Выпуск №5. Май (2012) DVDRip

32 | 13

1.37 ГБ

В этой теме нет новых непрочитанных сообщений. Видеоприложение к журналу Рыбалка на Руси. Выпуск №3. Март (2012) DVDRip

38 | 9

1.37 ГБ




Вы не можете начинать темы
Вы не можете отвечать на сообщения
Вы не можете редактировать свои сообщения
Вы не можете удалять свои сообщения
Вы не можете добавлять вложения

Перейти:  
Для Мосгорсуда, Роскомнадзора и рекламодателей: mosgorsud-torrent[собачка]yandex.ru
 Вход
ppkBB3cker v.2 © 2008-2014 @ PPK
[ Time : 0.051s | 15 Queries | GZIP : Off ]

cron