img image001 image001 image001 image001 image001 image001 image001 image001 image001 image001 image001 image001 image001 image001 image001

Planets Sun Sun Sun
Статистика раздачи
Автор: Снежана | Размер: 744.02 МБ | Добавлен: 12 авг 2013
Раздают: 16    Качают: 2
Скачать торрент
Скачать торрент
Описание торрента

СообщениеДобавлено: 12 авг 2013 

Стамбул - город императоров и султанов



#77
Год выпуска: 2006
Страна: Германия
Студия: Komplett-Media GmbH
Жанр: документальный
Продолжительность: 01:00:42

Перевод: Профессиональный (дикторский закадровый)
Субтитры: нет
Оригинальная аудиодорожка: нет

Описание:
Фильм состоит из 8 частей. Византийское наследие, Цистерна базилика, Большой базар, Айя-София, Дворец султана, Принцевы острова, Голубая мечеть, Топкапы.
В этом путешествии Вы:
- начнёте осмотр у впечатляющего дворца Топкалы XVI века, где одновременно могли находиться 5 тысяч человек;
- познакомитесь с постройками древнего мира, в том числе с Цистерной Базилика и Змеиной колонной V века до н.э., а также осмотрите руины резиденции римских императоров;
- с восхищением полюбуетесь собором Айя-София VI века, который вначале был византийским храмом, а затем мечетью, - а также Голубой мечетью XVII века, окруженной 6 минаретами;
- откроете для себя очарование квартала Фенер, в котором с середины XV века селилась византийская аристократия;
- познакомитесь с атмосферой мусульманских районов, сосредоточенных, в том числе, вокруг мечети Сулеймана Великолепного, мечети Баязет и Новой мечети;
- завершите путешествие круизом по проливу Босфор, с которого открывается удивительная панорама древнего Стамбула.





Исходник: DVD5 R5
Тип релиза: DVDRip-AVC
Контейнер: MKV

Видео: 704->1024x576 (16:9), 25 fps, H264 ~ 1520 kbps avg, 0.150 bit/pixel
Аудио: 48 kHz, Dolby AC3 2.0, 192.00 kbps

Раздача от:
Общее
Полное имя : Stambul.gorod.imperatorov.i.sultanov.DVDRip-AVC_[Youtracker]_by_AVP Studio.mkv
Формат : Matroska
Версия формата : Version 2
Размер файла : 744 Мбайт
Продолжительность : 1 ч. 0 м.
Общий поток : 1713 Кбит/сек
Дата кодирования : UTC 2013-08-08 17:48:06
Программа кодирования : mkvmerge v5.0.1 ('Es ist Sommer') built on Nov 6 2011 16:23:40
Библиотека кодирования : libebml v1.2.2 + libmatroska v1.3.0

Видео
Идентификатор : 1
Формат : AVC
Формат/Информация : Advanced Video Codec
Профиль формата : High@L4.1
Параметр CABAC формата : Да
Параметр ReFrames формата : 11 кадров
Идентификатор кодека : V_MPEG4/ISO/AVC
Продолжительность : 1 ч. 0 м.
Битрейт : 1520 Кбит/сек
Ширина : 704 пикселя
Высота : 576 пикселей
Соотношение сторон : 16:9
Частота кадров : 25,000 кадров/сек
Стандарт вещания : PAL
Цветовое пространство : YUV
Субдискретизация насыщенности : 4:2:0
Битовая глубина : 8 бит
Тип развёртки : Прогрессивная
Бит/(Пиксели*Кадры) : 0.150
Размер потока : 646 Мбайт (87%)
Библиотека кодирования : x264 core 130 r2273 b3065e6
Настройки программы : cabac=1 / ref=11 / deblock=1:-2:-1 / analyse=0x3:0x113 / me=umh / subme=9 / psy=1 / psy_rd=1.00:0.15 / mixed_ref=1 / me_range=32 / chroma_me=1 / trellis=1 / 8x8dct=1 / cqm=0 / deadzone=21,11 / fast_pskip=0 / chroma_qp_offset=-3 / threads=3 / lookahead_threads=1 / sliced_threads=0 / nr=0 / decimate=0 / interlaced=0 / bluray_compat=0 / constrained_intra=0 / bframes=8 / b_pyramid=2 / b_adapt=2 / b_bias=0 / direct=3 / weightb=1 / open_gop=0 / weightp=2 / keyint=250 / keyint_min=25 / scenecut=40 / intra_refresh=0 / rc_lookahead=60 / rc=2pass / mbtree=1 / bitrate=1520 / ratetol=1.0 / qcomp=0.60 / qpmin=0 / qpmax=69 / qpstep=4 / cplxblur=20.0 / qblur=0.5 / ip_ratio=1.40 / aq=1:1.00
Default : Да
Forced : Нет

Аудио
Идентификатор : 2
Формат : AC-3
Формат/Информация : Audio Coding 3
Расширение режима : CM (complete main)
Идентификатор кодека : A_AC3
Продолжительность : 1 ч. 0 м.
Вид битрейта : Постоянный
Битрейт : 192 Кбит/сек
Каналы : 2 канала
Расположение каналов : Front: L R
Частота : 48,0 КГц
Битовая глубина : 16 бит
Метод сжатия : С потерями
Размер потока : 83,4 Мбайт (11%)
Default : Да
Forced : Нет





   Похожие торренты   Торрент   Размер 
В этой теме нет новых непрочитанных сообщений. Стамбул. Видеоприложение к журналу «Путешествие по Европе» Выпуск №19: Стамбул (2006) DVD5 R5 от Youtracker

8 | 8

2.88 ГБ

В этой теме нет новых непрочитанных сообщений. Видеоприложение к журналу «Путешествие по Европе» Выпуск №19: Стамбул (2006) DVDRip от Youtracker

10 | 5

745.5 МБ

В этой теме нет новых непрочитанных сообщений. Видеоприложение к журналу «Путешествие по Европе» Выпуск №22: Майорка (2006) DVDRip от Youtracker

14 | 9

1.46 ГБ

В этой теме нет новых непрочитанных сообщений. Видеоприложение к журналу «Путешествие по Европе» Выпуск №22: Майорка (2006) DVDRip от Youtracker

27 | 6

744.96 МБ

В этой теме нет новых непрочитанных сообщений. Путешествие по Европе. Выпуск №22: Майорка (2006) DVDRip-AVC от New-Team

0 | 2

1.46 ГБ

В этой теме нет новых непрочитанных сообщений. Видеоприложение к журналу Рыбалка на Руси. Выпуск №5. Май (2012) DVDRip

32 | 13

1.37 ГБ

В этой теме нет новых непрочитанных сообщений. Видеоприложение к журналу Рыбалка на Руси. Выпуск №6. Июнь (2012) DVDRip

39 | 3

1.37 ГБ




Вы не можете начинать темы
Вы не можете отвечать на сообщения
Вы не можете редактировать свои сообщения
Вы не можете удалять свои сообщения
Вы не можете добавлять вложения

Перейти:  
Для Мосгорсуда, Роскомнадзора и рекламодателей: mosgorsud-torrent[собачка]yandex.ru
 Вход
ppkBB3cker v.2 © 2008-2014 @ PPK
[ Time : 0.019s | 14 Queries | GZIP : On ]

Торрент трекер RUTOR.IN, Не можете зайти на rutor.org? Какой новый адрес рутор? Какое зеркало рутор? Не работает rutor.org и зеркала? Тогда наш торрент специально для вас. Rutor.in неофициальное зеркало rutor. В случае если у Вас заблокирован rutor или вдруг Вы не можете на него зайти, то Вы без труда сможете скачать бесплатно и без рекламы последние новинки кино, игр, сериалов и прочего у нас, на Rutor.in. Не нужно использовать прокси, чтобы зайти на рутор, достаточно воспользоваться нашим ресурсом. Все новые фильмы, игры, сериалы, книги и музыка за 2013 и 2014 годы через торрент бесплатно. Скачивайте фильмы в хорошем качестве, игры для пк, xbox, playstation без регистрации. У нас вы найдете новые Зарубежные сериалы и Русские сериалы 2013, 2014, 2015 годов. Оставайтесь с нами, качайте любимые фильмы, игры, сериалы, книги и музыку.