img image001 image001 image001 image001 image001 image001 image001 image001 image001 image001 image001 image001 image001 image001 image001

Planets Sun Sun Sun
Статистика раздачи
Автор: Снежана | Размер: 700.12 МБ | Добавлен: 12 авг 2013
Раздают: 18    Качают: 8
Скачать торрент
Скачать торрент
Описание торрента

СообщениеДобавлено: 12 авг 2013 

Американский тигр
American Tiger



#77

Год выпуска: 2012
Страна: Канада
Жанр: Документальный
Продолжительность: 00:41:39
Перевод: Профессиональный (дублированный) | Александр Гаврилин / АРК·ТВ
Интервью и комментарии - Профессиональный (одноголосый закадровый)
Русские субтитры: нет


Режиссер: Яник Летурно / Yanick Letourneau

Описание: Сегодня большее число тигров живет в неволе в США, чем их осталось в дикой природе. Их держат в домах, на ранчо и в зоопарках.


Автор рипа: Leo.pard
Исходник: HDTV 1080i Спасибо LeXa 84!


Kачество: HDTVRip
Формат: AVI
Видео: XviD, 720x400 (16:9), 2148 Kbps, 25 fps
Аудио: MP2, 192 Kbps, 48 KHz, 2 channels

Сэмпл: http://multi-up.com/892481

General
Complete name : D:Amerikanskij.tigr.2012.HDTVRip.avi
Format : AVI
Format/Info : Audio Video Interleave
File size : 700 MiB
Duration : 41mn 39s
Overall bit rate : 2 349 Kbps
Writing application : VirtualDubMod 1.5.10.3 | www.virtualdub-fr.org || (build 2550/release)
Writing library : VirtualDubMod build 2550/release

Video
ID : 0
Format : MPEG-4 Visual
Format profile : Advanced Simple@L5
Format settings, BVOP : 1
Format settings, QPel : No
Format settings, GMC : No warppoints
Format settings, Matrix : Custom
Codec ID : XVID
Codec ID/Hint : XviD
Duration : 41mn 39s
Bit rate : 2 148 Kbps
Width : 720 pixels
Height : 400 pixels
Display aspect ratio : 16:9
Frame rate : 25.000 fps
Color space : YUV
Chroma subsampling : 4:2:0
Bit depth : 8 bits
Scan type : Progressive
Compression mode : Lossy
Bits/(Pixel*Frame) : 0.298
Stream size : 640 MiB (91%)
Writing library : XviD 73

Audio
ID : 1
Format : MPEG Audio
Format version : Version 1
Format profile : Layer 2
Codec ID : 50
Duration : 41mn 39s
Bit rate mode : Constant
Bit rate : 192 Kbps
Channel(s) : 2 channels
Sampling rate : 48.0 KHz
Compression mode : Lossy
Stream size : 57.2 MiB (8%)
Alignment : Aligned on interleaves
Interleave, duration : 40 ms (1.00 video frame)
Interleave, preload duration : 504 ms







   Похожие торренты   Торрент   Размер 
В этой теме нет новых непрочитанных сообщений. Nat Geo Wild: Американский тигр / American Tiger (2012) HDTVRip-AVC от Leo.pard | D

12 | 3

700.46 МБ

В этой теме нет новых непрочитанных сообщений. Американский тигр / American Tiger (2012) HDTV 1080i

0 | 5

3.15 ГБ

В этой теме нет новых непрочитанных сообщений. Тайны дикой природы Индии: Хищники джунглей / Тигр Джунглей / Secrets of Wild India: Tiger Jungles (2012) HDTVRip-AVC от Leo.pard | D

41 | 3

699.51 МБ

В этой теме нет новых непрочитанных сообщений. Тайны дикой природы Индии: Хищники джунглей / Тигр Джунглей / Secrets of Wild India: Tiger Jungles (2012) HDTVRip от Leo.pard | D

46 | 6

700.42 МБ

В этой теме нет новых непрочитанных сообщений. Американский рикша / Американский тигр / American risciò (1990) VHSRip

0 | 2

698.96 МБ

В этой теме нет новых непрочитанных сообщений. Был один Тигр / Жил-был тигр / Ek Tha Tiger (2012) BDRip-AVC от Тorrent-Хzona

0 | 2

2.16 ГБ

В этой теме нет новых непрочитанных сообщений. Был один Тигр / Жил-был тигр / Ek Tha Tiger (2012) НDRip от Тorrent-Хzona | КПК

19 | 3

548.98 МБ




Вы не можете начинать темы
Вы не можете отвечать на сообщения
Вы не можете редактировать свои сообщения
Вы не можете удалять свои сообщения
Вы не можете добавлять вложения

Перейти:  
Для Мосгорсуда, Роскомнадзора и рекламодателей: mosgorsud-torrent[собачка]yandex.ru
 Вход
ppkBB3cker v.2 © 2008-2014 @ PPK
[ Time : 0.082s | 14 Queries | GZIP : Off ]

Торрент трекер RUTOR.IN, Не можете зайти на rutor.org? Какой новый адрес рутор? Какое зеркало рутор? Не работает rutor.org и зеркала? Тогда наш торрент специально для вас. Rutor.in неофициальное зеркало rutor. В случае если у Вас заблокирован rutor или вдруг Вы не можете на него зайти, то Вы без труда сможете скачать бесплатно и без рекламы последние новинки кино, игр, сериалов и прочего у нас, на Rutor.in. Не нужно использовать прокси, чтобы зайти на рутор, достаточно воспользоваться нашим ресурсом. Все новые фильмы, игры, сериалы, книги и музыка за 2013 и 2014 годы через торрент бесплатно. Скачивайте фильмы в хорошем качестве, игры для пк, xbox, playstation без регистрации. У нас вы найдете новые Зарубежные сериалы и Русские сериалы 2013, 2014, 2015 годов. Оставайтесь с нами, качайте любимые фильмы, игры, сериалы, книги и музыку.