img image001 image001 image001 image001 image001 image001 image001 image001 image001 image001 image001 image001 image001 image001 image001

Planets Sun Sun Sun
Статистика раздачи
Автор: Снежана | Размер: 700.46 МБ | Добавлен: 12 авг 2013
Раздают: 12    Качают: 3
Скачать торрент
Скачать торрент
Описание торрента

СообщениеДобавлено: 12 авг 2013 

Американский тигр
American Tiger



#77

Год выпуска: 2012
Страна: Канада
Жанр: Документальный
Продолжительность: 00:41:39
Перевод: Профессиональный (дублированный) | Александр Гаврилин / АРК·ТВ
Интервью и комментарии - Профессиональный (одноголосый закадровый)
Русские субтитры: нет


Режиссер: Яник Летурно / Yanick Letourneau

Описание: Сегодня большее число тигров живет в неволе в США, чем их осталось в дикой природе. Их держат в домах, на ранчо и в зоопарках.


Автор рипа: Leo.pard
Исходник: HDTV 1080i Спасибо LeXa 84!


Kачество: HDTVRip-AVC
Формат: MKV
Видео: x264, 912x512 (16:9), 2157 Kbps, 25 fps
Аудио: MP2, 192 Kbps, 48 KHz, 2 channels

Сэмпл: http://multi-up.com/892709

General
Unique ID : 230778815071725902021882339935603196660 (0xAD9E620F69BC2085A796E6CD50B902F4)
Complete name : D:Amerikanskij.tigr.2012.HDTVRip-AVC.mkv
Format : Matroska
Format version : Version 2
File size : 700 MiB
Duration : 41mn 39s
Overall bit rate : 2 351 Kbps
Encoded date : UTC 2013-08-08 15:26:00
Writing application : mkvmerge v6.1.0 ('Old Devil') built on Mar 4 2013 09:10:42
Writing library : libebml v1.3.0 + libmatroska v1.4.0

Video
ID : 1
Format : AVC
Format/Info : Advanced Video Codec
Format profile : High@L4.1
Format settings, CABAC : Yes
Format settings, ReFrames : 11 frames
Codec ID : V_MPEG4/ISO/AVC
Duration : 41mn 39s
Bit rate : 2 157 Kbps
Width : 912 pixels
Height : 512 pixels
Display aspect ratio : 16:9
Frame rate : 25.000 fps
Color space : YUV
Chroma subsampling : 4:2:0
Bit depth : 8 bits
Scan type : Progressive
Bits/(Pixel*Frame) : 0.185
Stream size : 629 MiB (90%)
Writing library : x264 core 130 r2273 b3065e6
Encoding settings : cabac=1 / ref=11 / deblock=1:-2:-1 / analyse=0x3:0x113 / me=umh / subme=9 / psy=1 / psy_rd=1.00:0.20 / mixed_ref=1 / me_range=32 / chroma_me=1 / trellis=1 / 8x8dct=1 / cqm=0 / deadzone=21,11 / fast_pskip=0 / chroma_qp_offset=-3 / threads=3 / lookahead_threads=1 / sliced_threads=0 / nr=0 / decimate=0 / interlaced=0 / bluray_compat=0 / constrained_intra=0 / bframes=8 / b_pyramid=2 / b_adapt=2 / b_bias=0 / direct=3 / weightb=1 / open_gop=0 / weightp=2 / keyint=250 / keyint_min=25 / scenecut=40 / intra_refresh=0 / rc_lookahead=60 / rc=2pass / mbtree=1 / bitrate=2157 / ratetol=1.0 / qcomp=0.60 / qpmin=0 / qpmax=69 / qpstep=4 / cplxblur=20.0 / qblur=0.5 / ip_ratio=1.40 / aq=1:1.00

Audio
ID : 2
Format : MPEG Audio
Format version : Version 1
Format profile : Layer 2
Codec ID : A_MPEG/L2
Codec ID/Hint : MP2
Duration : 41mn 39s
Bit rate mode : Constant
Bit rate : 192 Kbps
Channel(s) : 2 channels
Sampling rate : 48.0 KHz
Compression mode : Lossy
Stream size : 57.2 MiB (8%)
Language : English







   Похожие торренты   Торрент   Размер 
В этой теме нет новых непрочитанных сообщений. Nat Geo Wild: Американский тигр / American Tiger (2012) HDTVRip от Leo.pard | D

18 | 8

700.12 МБ

В этой теме нет новых непрочитанных сообщений. Американский тигр / American Tiger (2012) HDTV 1080i

0 | 5

3.15 ГБ

В этой теме нет новых непрочитанных сообщений. Тайны дикой природы Индии: Хищники джунглей / Тигр Джунглей / Secrets of Wild India: Tiger Jungles (2012) HDTVRip-AVC от Leo.pard | D

41 | 3

699.51 МБ

В этой теме нет новых непрочитанных сообщений. Тайны дикой природы Индии: Хищники джунглей / Тигр Джунглей / Secrets of Wild India: Tiger Jungles (2012) HDTVRip от Leo.pard | D

46 | 6

700.42 МБ

В этой теме нет новых непрочитанных сообщений. Американский рикша / Американский тигр / American risciò (1990) VHSRip

0 | 2

698.96 МБ

В этой теме нет новых непрочитанных сообщений. Был один Тигр / Жил-был тигр / Ek Tha Tiger (2012) BDRip-AVC от Тorrent-Хzona

0 | 2

2.16 ГБ

В этой теме нет новых непрочитанных сообщений. Был один Тигр / Жил-был тигр / Ek Tha Tiger (2012) НDRip от Тorrent-Хzona | КПК

19 | 3

548.98 МБ




Вы не можете начинать темы
Вы не можете отвечать на сообщения
Вы не можете редактировать свои сообщения
Вы не можете удалять свои сообщения
Вы не можете добавлять вложения

Перейти:  
Для Мосгорсуда, Роскомнадзора и рекламодателей: mosgorsud-torrent[собачка]yandex.ru
 Вход
ppkBB3cker v.2 © 2008-2014 @ PPK
[ Time : 0.042s | 15 Queries | GZIP : Off ]

cron