img image001 image001 image001 image001 image001 image001 image001 image001 image001 image001 image001 image001 image001 image001 image001

Planets Sun Sun Sun
Статистика раздачи
Автор: Снежана | Размер: 700.9 МБ | Добавлен: 12 авг 2013
Раздают: 18    Качают: 4
Скачать торрент
Скачать торрент
Описание торрента

СообщениеДобавлено: 12 авг 2013 

Одиссея больших кошек
Big Cat Odyssey



#77

Год выпуска: 2010
Страна: США
Жанр: Документальный
Продолжительность: 00:44:58
Перевод: Профессиональный (дублированный) | Игорь Тарадайкин / АРК·ТВ
Русские субтитры: нет


Режиссеры: Дерек Жюбер / Dereck Joubert, Беверли Жюбер / Beverly Joubert

Описание: Известные исследователи-натуралисты и неоднократные лауреаты премий за лучшие документальные фильмы о животных - супруги Дерек и Беверли Жубер - начали заниматься изучением больших кошек 30 лет назад. Их документальные хроники "Одиссея больших кошек" фиксируют каждодневный труд этой замечательной пары, посвятившей тридцать лет своей жизни наблюдениям за крупными хищными кошками Ботсваны. Ими отснято много километров кинопленок, сделано множество фотографий, исписано множество журналов наблюдений. Жуберы неотступно следуют за львами и леопардами, не обращая внимания на тяжелейшие климатические условия Африки. Им удается подобраться к этим хищникам ближе, чем кому-бы то ни было, и впервые запечатлеть на пленку необычные повадки и самые интересные моменты из жизни этих больших кошек. Целый прайд львов вступает в схватку с огромным буйволом и побеждает его. Но это еще не конец - после победы возникает настоящая кровавая бойня, когда к разделу добычи присоединяются гиены.
Тут же леопарды, крадучись, выходят из зарослей на охоту, но всячески проявляют осторожность. Чтобы не стать добычей более крупных хищников, они держатся вблизи кустов, и при первой опасности мгновенно прячутся на деревьях.
Такова реальность мира больших диких кошек: они убивают, чтобы жить и живут, чтобы убивать.


Автор рипа: Leo.pard
Исходник: HDTV 1080i Спасибо LeXa 84!


Kачество: HDTVRip
Формат: AVI
Видео: XviD, 720x400 (16:9), 1977 Kbps, 25 fps
Аудио: AC3, 192 Kbps, 48 KHz, 2 channels

Сэмпл: http://multi-up.com/892941

General
Complete name : D:Odisseja.bol'shih.koshek.2010.HDTVRip.avi
Format : AVI
Format/Info : Audio Video Interleave
File size : 701 MiB
Duration : 44mn 58s
Overall bit rate : 2 179 Kbps
Writing application : VirtualDubMod 1.5.10.3 | www.virtualdub-fr.org || (build 2550/release)
Writing library : VirtualDubMod build 2550/release

Video
ID : 0
Format : MPEG-4 Visual
Format profile : Advanced Simple@L5
Format settings, BVOP : 1
Format settings, QPel : No
Format settings, GMC : No warppoints
Format settings, Matrix : Custom
Codec ID : XVID
Codec ID/Hint : XviD
Duration : 44mn 58s
Bit rate : 1 977 Kbps
Width : 720 pixels
Height : 400 pixels
Display aspect ratio : 16:9
Frame rate : 25.000 fps
Color space : YUV
Chroma subsampling : 4:2:0
Bit depth : 8 bits
Scan type : Progressive
Compression mode : Lossy
Bits/(Pixel*Frame) : 0.275
Stream size : 636 MiB (91%)
Writing library : XviD 73

Audio
ID : 1
Format : AC-3
Format/Info : Audio Coding 3
Mode extension : CM (complete main)
Codec ID : 2000
Duration : 44mn 58s
Bit rate mode : Constant
Bit rate : 192 Kbps
Channel(s) : 2 channels
Channel positions : Front: L R
Sampling rate : 48.0 KHz
Bit depth : 16 bits
Compression mode : Lossy
Stream size : 61.8 MiB (9%)
Alignment : Split accross interleaves
Interleave, duration : 40 ms (1.00 video frame)
Interleave, preload duration : 500 ms









   Похожие торренты   Торрент   Размер 
В этой теме нет новых непрочитанных сообщений. Nat Geo Wild: Одиссея больших кошек / Big Cat Odyssey (2010) HDTVRip-AVC от Leo.pard | D

25 | 4

700.52 МБ

В этой теме нет новых непрочитанных сообщений. Одиссея больших кошек / Big Cat Odyssey (2010) HDTVRip от AndrewWhite

3 | 2

580.28 МБ

В этой теме нет новых непрочитанных сообщений. Nat Geo Wild: Бетти Уайт: защитница больших кошек / Betty White goes wild! (2013) HDTVRip от Leo.pard | P1

66 | 11

700.3 МБ

В этой теме нет новых непрочитанных сообщений. Nat Geo Wild: Бетти Уайт: защитница больших кошек / Betty White goes wild! (2013) HDTVRip-AVC от Leo.pard | P1

4 | 5

700.45 МБ

В этой теме нет новых непрочитанных сообщений. Nat Geo Wild: Атака больших кошек / Attack of the Big Cats (2012) HDTVRip-AVC от Leo.pard | D

16 | 2

699.64 МБ

В этой теме нет новых непрочитанных сообщений. Nat Geo Wild: Атака больших кошек / Attack of the Big Cats (2012) HDTVRip от Leo.pard | D

21 | 3

699.51 МБ

В этой теме нет новых непрочитанных сообщений. Nat Geo Wild: Дикая сторона кошек / Wild Side of Cats (2012) HDTVRip-AVC от Leo.pard | P1

4 | 2

700.55 МБ




Вы не можете начинать темы
Вы не можете отвечать на сообщения
Вы не можете редактировать свои сообщения
Вы не можете удалять свои сообщения
Вы не можете добавлять вложения

Перейти:  
Для Мосгорсуда, Роскомнадзора и рекламодателей: mosgorsud-torrent[собачка]yandex.ru
 Вход
ppkBB3cker v.2 © 2008-2014 @ PPK
[ Time : 0.041s | 14 Queries | GZIP : On ]

Торрент трекер RUTOR.IN, Не можете зайти на rutor.org? Какой новый адрес рутор? Какое зеркало рутор? Не работает rutor.org и зеркала? Тогда наш торрент специально для вас. Rutor.in неофициальное зеркало rutor. В случае если у Вас заблокирован rutor или вдруг Вы не можете на него зайти, то Вы без труда сможете скачать бесплатно и без рекламы последние новинки кино, игр, сериалов и прочего у нас, на Rutor.in. Не нужно использовать прокси, чтобы зайти на рутор, достаточно воспользоваться нашим ресурсом. Все новые фильмы, игры, сериалы, книги и музыка за 2013 и 2014 годы через торрент бесплатно. Скачивайте фильмы в хорошем качестве, игры для пк, xbox, playstation без регистрации. У нас вы найдете новые Зарубежные сериалы и Русские сериалы 2013, 2014, 2015 годов. Оставайтесь с нами, качайте любимые фильмы, игры, сериалы, книги и музыку.