img image001 image001 image001 image001 image001 image001 image001 image001 image001 image001 image001 image001 image001 image001 image001

Planets Sun Sun Sun
Статистика раздачи
Автор: Снежана | Размер: 1.46 ГБ | Добавлен: 12 авг 2013
Раздают: 14    Качают: 9
Скачать торрент
Скачать торрент
Описание торрента

СообщениеДобавлено: 12 авг 2013 

Майорка. В солнечных краях



#77
Год выпуска: 2006
Страна: Германия
Студия: Komplett-Media GmbH
Жанр: документальный
Продолжительность: 01:16:37

Перевод: Профессиональный (дикторский закадровый)
Субтитры: нет
Оригинальная аудиодорожка: нет

Описание:
В столице Балеарских островов, городе Пальма-де-Майорка, ренессанс соседствует с барокко, а готика — с модерном, но вместе эти старинные стили разных эпох создают удивительно гармоничную композицию. Над узкими улочками города возвышается визитная карточка острова Майорка: величественный собор Ла-Сео. Образ открытого миру города дополняют набережная и порт, куда причаливают сотни яхт и роскошных пассажирских лайнеров. Город Пальма — это первая остановка в нашем путешествии по прекрасной Майорке. Дальше следуют: эксклюзивный курорт Ильетес, аквапарк «Маринеленд», живописный горный поселок Вальдемоса с великолепным монастырем картезианцев, Сольер со знаменитым трамваем-музеем, владение визирей Альфабия, Форналуч, признанный самой красивой деревней Испании, самое глубокое и красивое ущелье Балеарских островов—Торрент-де-Пареис, монастырь Божьей Матери в Льюке; построенная на развалинах римского поселения Алькудия, болота Сальбуферы, легендарный стекольный завод Гордиола, второй по величине город Майорки — Манакор — и город-крепость Арта. Майорка — это великолепные памятники старины, но прежде всего это сказочные пляжи. И мы объедем все побережье, чтобы найти самый прекрасный из них.





Исходник: DVD5 R5
Тип релиза: DVDRip
Контейнер: AVI

Видео: 688x528 (4:3), 25 fps, XviD ~ 2329 kbps avg, 0.256 bit/pixel
Аудио: 48 kHz, Dolby AC3 2.0, 192.00 kbps Русский
Аудио: 48 kHz, Dolby AC3 2.0, 192.00 kbps Украинский

Раздача от:
Общее
Полное имя : Mayorka.V.solnechnyh.krayah.2006.DVDRip_[Youtracker]_by_AVP Studio.avi
Формат : AVI
Формат/Информация : Audio Video Interleave
Размер файла : 1,46 Гбайт
Продолжительность : 1 ч. 16 м.
Общий поток : 2727 Кбит/сек
Программа кодирования : VirtualDubModRus 1.5.10.2 (build 2542/release)
Библиотека кодирования : VirtualDubMod build 2542/release

Видео
Идентификатор : 0
Формат : MPEG-4 Visual
Профиль формата : Advanced Simple@L5
Параметр BVOP формата : 1
Параметр QPel формата : Нет
Параметр GMC формата : Без точки перехода
Параметр матрицы формата : Выборочная
Идентификатор кодека : XVID
Идентификатор кодека/Подсказка : XviD
Продолжительность : 1 ч. 16 м.
Битрейт : 2329 Кбит/сек
Ширина : 688 пикселей
Высота : 528 пикселей
Соотношение сторон : 4:3
Частота кадров : 25,000 кадров/сек
Цветовое пространство : YUV
Субдискретизация насыщенности : 4:2:0
Битовая глубина : 8 бит
Тип развёртки : Прогрессивная
Метод сжатия : С потерями
Бит/(Пиксели*Кадры) : 0.256
Размер потока : 1,25 Гбайт (85%)
Библиотека кодирования : XviD 65

Аудио #1
Идентификатор : 1
Формат : AC-3
Формат/Информация : Audio Coding 3
Расширение режима : CM (complete main)
Идентификатор кодека : 2000
Продолжительность : 1 ч. 16 м.
Вид битрейта : Постоянный
Битрейт : 192 Кбит/сек
Каналы : 2 канала
Расположение каналов : Front: L R
Частота : 48,0 КГц
Битовая глубина : 16 бит
Метод сжатия : С потерями
Размер потока : 105 Мбайт (7%)
Выравнивание : Разделение по промежуткам
Продолжительность промежутка : 40 мс. (1,00 видеокадр)
Время предзагрузки промежутка : 500 мс.

Аудио #2
Идентификатор : 2
Формат : AC-3
Формат/Информация : Audio Coding 3
Расширение режима : CM (complete main)
Идентификатор кодека : 2000
Продолжительность : 1 ч. 16 м.
Вид битрейта : Постоянный
Битрейт : 192 Кбит/сек
Каналы : 2 канала
Расположение каналов : Front: L R
Частота : 48,0 КГц
Битовая глубина : 16 бит
Метод сжатия : С потерями
Размер потока : 105 Мбайт (7%)
Выравнивание : Разделение по промежуткам
Продолжительность промежутка : 40 мс. (1,00 видеокадр)
Время предзагрузки промежутка : 500 мс





   Похожие торренты   Торрент   Размер 
В этой теме нет новых непрочитанных сообщений. Видеоприложение к журналу «Путешествие по Европе» Выпуск №22: Майорка (2006) DVDRip от Youtracker

27 | 6

744.96 МБ

В этой теме нет новых непрочитанных сообщений. Видеоприложение к журналу «Путешествие по Европе» Выпуск №19: Стамбул (2006) DVDRip от Youtracker

10 | 5

745.5 МБ

В этой теме нет новых непрочитанных сообщений. Видеоприложение к журналу «Путешествие по Европе» Выпуск №19: Стамбул (2006) DVDRip-AVC от Youtracker

16 | 2

744.02 МБ

В этой теме нет новых непрочитанных сообщений. Стамбул. Видеоприложение к журналу «Путешествие по Европе» Выпуск №19: Стамбул (2006) DVD5 R5 от Youtracker

8 | 8

2.88 ГБ

В этой теме нет новых непрочитанных сообщений. Путешествие по Европе. Выпуск №22: Майорка (2006) DVDRip-AVC от New-Team

0 | 2

1.46 ГБ

В этой теме нет новых непрочитанных сообщений. Путешествие по Европе. Выпуск №22: Майорка (2006) DVD5 R5 от New-Team

0 | 2

3.61 ГБ

В этой теме нет новых непрочитанных сообщений. Видеоприложение к журналу Рыбалка на Руси. Выпуск №5. Май (2012) DVDRip

32 | 13

1.37 ГБ




Вы не можете начинать темы
Вы не можете отвечать на сообщения
Вы не можете редактировать свои сообщения
Вы не можете удалять свои сообщения
Вы не можете добавлять вложения

Перейти:  
Для Мосгорсуда, Роскомнадзора и рекламодателей: mosgorsud-torrent[собачка]yandex.ru
 Вход
ppkBB3cker v.2 © 2008-2014 @ PPK
[ Time : 0.050s | 14 Queries | GZIP : Off ]

Торрент трекер RUTOR.IN, Не можете зайти на rutor.org? Какой новый адрес рутор? Какое зеркало рутор? Не работает rutor.org и зеркала? Тогда наш торрент специально для вас. Rutor.in неофициальное зеркало rutor. В случае если у Вас заблокирован rutor или вдруг Вы не можете на него зайти, то Вы без труда сможете скачать бесплатно и без рекламы последние новинки кино, игр, сериалов и прочего у нас, на Rutor.in. Не нужно использовать прокси, чтобы зайти на рутор, достаточно воспользоваться нашим ресурсом. Все новые фильмы, игры, сериалы, книги и музыка за 2013 и 2014 годы через торрент бесплатно. Скачивайте фильмы в хорошем качестве, игры для пк, xbox, playstation без регистрации. У нас вы найдете новые Зарубежные сериалы и Русские сериалы 2013, 2014, 2015 годов. Оставайтесь с нами, качайте любимые фильмы, игры, сериалы, книги и музыку.