img image001 image001 image001 image001 image001 image001 image001 image001 image001 image001 image001 image001 image001 image001 image001

Planets Sun Sun Sun
Статистика раздачи
Автор: Снежана | Размер: 744.96 МБ | Добавлен: 12 авг 2013
Раздают: 27    Качают: 6
Скачать торрент
Скачать торрент
Описание торрента

СообщениеДобавлено: 12 авг 2013 

Майорка. В солнечных краях



#77
Год выпуска: 2006
Страна: Германия
Студия: Komplett-Media GmbH
Жанр: документальный
Продолжительность: 01:16:37

Перевод: Профессиональный (дикторский закадровый)
Субтитры: нет
Оригинальная аудиодорожка: нет

Описание:
В столице Балеарских островов, городе Пальма-де-Майорка, ренессанс соседствует с барокко, а готика — с модерном, но вместе эти старинные стили разных эпох создают удивительно гармоничную композицию. Над узкими улочками города возвышается визитная карточка острова Майорка: величественный собор Ла-Сео. Образ открытого миру города дополняют набережная и порт, куда причаливают сотни яхт и роскошных пассажирских лайнеров. Город Пальма — это первая остановка в нашем путешествии по прекрасной Майорке. Дальше следуют: эксклюзивный курорт Ильетес, аквапарк «Маринеленд», живописный горный поселок Вальдемоса с великолепным монастырем картезианцев, Сольер со знаменитым трамваем-музеем, владение визирей Альфабия, Форналуч, признанный самой красивой деревней Испании, самое глубокое и красивое ущелье Балеарских островов—Торрент-де-Пареис, монастырь Божьей Матери в Льюке; построенная на развалинах римского поселения Алькудия, болота Сальбуферы, легендарный стекольный завод Гордиола, второй по величине город Майорки — Манакор — и город-крепость Арта. Майорка — это великолепные памятники старины, но прежде всего это сказочные пляжи. И мы объедем все побережье, чтобы найти самый прекрасный из них.





Исходник: DVD5 R5
Тип релиза: DVDRip
Контейнер: AVI

Видео: 656x496 (4:3), 25 fps, XviD ~ 1222 kbps avg, 0.150 bit/pixel
Аудио: 48 kHz, MP3 2.0, 128.00 kbps

Раздача от:
Общее
Полное имя : Mayorka.V.solnechnyh.krayah.2006.DVDRip-745_[Youtracker]_by_AVP Studio.avi
Формат : AVI
Формат/Информация : Audio Video Interleave
Размер файла : 745 Мбайт
Продолжительность : 1 ч. 16 м.
Общий поток : 1359 Кбит/сек
Программа кодирования : VirtualDubModRus 1.5.10.2 (build 2542/release)
Библиотека кодирования : VirtualDubMod build 2542/release

Видео
Идентификатор : 0
Формат : MPEG-4 Visual
Профиль формата : Advanced Simple@L5
Параметр BVOP формата : 1
Параметр QPel формата : Нет
Параметр GMC формата : Без точки перехода
Параметр матрицы формата : Выборочная
Идентификатор кодека : XVID
Идентификатор кодека/Подсказка : XviD
Продолжительность : 1 ч. 16 м.
Битрейт : 1222 Кбит/сек
Ширина : 656 пикселей
Высота : 496 пикселей
Соотношение сторон : 4:3
Частота кадров : 25,000 кадров/сек
Цветовое пространство : YUV
Субдискретизация насыщенности : 4:2:0
Битовая глубина : 8 бит
Тип развёртки : Прогрессивная
Метод сжатия : С потерями
Бит/(Пиксели*Кадры) : 0.150
Размер потока : 669 Мбайт (90%)
Библиотека кодирования : XviD 65

Аудио
Идентификатор : 1
Формат : MPEG Audio
Версия формата : Version 1
Профиль формата : Layer 3
Идентификатор кодека : 55
Идентификатор кодека/Подсказка : MP3
Продолжительность : 1 ч. 16 м.
Вид битрейта : Постоянный
Битрейт : 128 Кбит/сек
Каналы : 2 канала
Частота : 48,0 КГц
Метод сжатия : С потерями
Размер потока : 70,1 Мбайт (9%)
Выравнивание : Соединение по промежуткам
Продолжительность промежутка : 40 мс. (1,00 видеокадр)
Время предзагрузки промежутка : 504 мс.
Библиотека кодирования : L3.99r
Настройки программы : -m s -V 4 -q 2 -lowpass 17 -b 128





   Похожие торренты   Торрент   Размер 
В этой теме нет новых непрочитанных сообщений. Видеоприложение к журналу «Путешествие по Европе» Выпуск №22: Майорка (2006) DVDRip от Youtracker

14 | 9

1.46 ГБ

В этой теме нет новых непрочитанных сообщений. Видеоприложение к журналу «Путешествие по Европе» Выпуск №19: Стамбул (2006) DVDRip от Youtracker

10 | 5

745.5 МБ

В этой теме нет новых непрочитанных сообщений. Видеоприложение к журналу «Путешествие по Европе» Выпуск №19: Стамбул (2006) DVDRip-AVC от Youtracker

16 | 2

744.02 МБ

В этой теме нет новых непрочитанных сообщений. Стамбул. Видеоприложение к журналу «Путешествие по Европе» Выпуск №19: Стамбул (2006) DVD5 R5 от Youtracker

8 | 8

2.88 ГБ

В этой теме нет новых непрочитанных сообщений. Путешествие по Европе. Выпуск №22: Майорка (2006) DVDRip-AVC от New-Team

0 | 2

1.46 ГБ

В этой теме нет новых непрочитанных сообщений. Путешествие по Европе. Выпуск №22: Майорка (2006) DVD5 R5 от New-Team

0 | 2

3.61 ГБ

В этой теме нет новых непрочитанных сообщений. Видеоприложение к журналу Рыбалка на Руси. Выпуск №5. Май (2012) DVDRip

32 | 13

1.37 ГБ




Вы не можете начинать темы
Вы не можете отвечать на сообщения
Вы не можете редактировать свои сообщения
Вы не можете удалять свои сообщения
Вы не можете добавлять вложения

Перейти:  
Для Мосгорсуда, Роскомнадзора и рекламодателей: mosgorsud-torrent[собачка]yandex.ru
 Вход
ppkBB3cker v.2 © 2008-2014 @ PPK
[ Time : 0.022s | 15 Queries | GZIP : Off ]

cron