img image001 image001 image001 image001 image001 image001 image001 image001 image001 image001 image001 image001 image001 image001 image001

Planets Sun Sun Sun
Статистика раздачи
Автор: PriZraK | Размер: 1.46 ГБ | Добавлен: 15 фев 2014
Раздают: 0    Качают: 2
Скачать торрент
Скачать торрент
Описание торрента

СообщениеДобавлено: 15 фев 2014 

Майорка. В солнечных краях



Год выпуска: 2006
Страна: Германия
Студия: Komplett-Media GmbH
Жанр: документальный
Продолжительность: 01:16:37

Перевод: Профессиональный (дикторский закадровый)
Субтитры: нет
Оригинальная аудиодорожка: нет

Описание:
В столице Балеарских островов, городе Пальма-де-Майорка, ренессанс соседствует с барокко, а готика — с модерном, но вместе эти старинные стили разных эпох создают удивительно гармоничную композицию. Над узкими улочками города возвышается визитная карточка острова Майорка: величественный собор Ла-Сео. Образ открытого миру города дополняют набережная и порт, куда причаливают сотни яхт и роскошных пассажирских лайнеров. Город Пальма — это первая остановка в нашем путешествии по прекрасной Майорке. Дальше следуют: эксклюзивный курорт Ильетес, аквапарк «Маринеленд», живописный горный поселок Вальдемоса с великолепным монастырем картезианцев, Сольер со знаменитым трамваем-музеем, владение визирей Альфабия, Форналуч, признанный самой красивой деревней Испании, самое глубокое и красивое ущелье Балеарских островов—Торрент-де-Пареис, монастырь Божьей Матери в Льюке; построенная на развалинах римского поселения Алькудия, болота Сальбуферы, легендарный стекольный завод Гордиола, второй по величине город Майорки — Манакор — и город-крепость Арта. Майорка — это великолепные памятники старины, но прежде всего это сказочные пляжи. И мы объедем все побережье, чтобы найти самый прекрасный из них.





Исходник: DVD5 R5
Тип релиза: DVDRip-AVC
Контейнер: MKV

Видео: 696->758x568 (4:3), 25 fps, H264 ~ 2335 kbps avg, 0.236 bit/pixel
Аудио: 48 kHz, Dolby AC3 2.0, 192.00 kbps Русский
Аудио: 48 kHz, Dolby AC3 2.0, 192.00 kbps Украинский
Общее
Полное имя : Mayorka.V.solnechnyh.krayah.2006.DVDRip-AVC_[Youtracker]_by_AVP Studio.mkv
Формат : Matroska
Версия формата : Version 4 / Version 2
Размер файла : 1,46 Гбайт
Продолжительность : 1 ч. 16 м.
Общий поток : 2721 Кбит/сек
Название фильма : Mayorka.V.solnechnyh.krayah.2006.DVDRip-AVC_[Youtracker]_by_AVP Studio
Дата кодирования : UTC 2013-08-12 10:07:31
Программа кодирования : mkvmerge v6.3.0 ('You can't stop me!') built on Jun 27 2013 22:06:07
Библиотека кодирования : libebml v1.3.0 + libmatroska v1.4.0

Видео
Идентификатор : 1
Формат : AVC
Формат/Информация : Advanced Video Codec
Профиль формата : High@L4.1
Параметр CABAC формата : Да
Параметр ReFrames формата : 11 кадров
Идентификатор кодека : V_MPEG4/ISO/AVC
Продолжительность : 1 ч. 16 м.
Битрейт : 2335 Кбит/сек
Ширина : 696 пикселей
Высота : 568 пикселей
Соотношение сторон : 4:3
Соотношение сторон в оригинале : 4:3
Частота кадров : 25,000 кадров/сек
Цветовое пространство : YUV
Субдискретизация насыщенности : 4:2:0
Битовая глубина : 8 бит
Тип развёртки : Прогрессивная
Бит/(Пиксели*Кадры) : 0.236
Размер потока : 1,22 Гбайт (84%)
Библиотека кодирования : x264 core 130 r2273 b3065e6
Настройки программы : cabac=1 / ref=11 / deblock=1:-2:-1 / analyse=0x3:0x113 / me=umh / subme=9 / psy=1 / psy_rd=1.00:0.15 / mixed_ref=1 / me_range=32 / chroma_me=1 / trellis=1 / 8x8dct=1 / cqm=0 / deadzone=21,11 / fast_pskip=0 / chroma_qp_offset=-3 / threads=3 / lookahead_threads=1 / sliced_threads=0 / nr=0 / decimate=0 / interlaced=0 / bluray_compat=0 / constrained_intra=0 / bframes=8 / b_pyramid=2 / b_adapt=2 / b_bias=0 / direct=3 / weightb=1 / open_gop=0 / weightp=2 / keyint=250 / keyint_min=25 / scenecut=40 / intra_refresh=0 / rc_lookahead=60 / rc=2pass / mbtree=1 / bitrate=2335 / ratetol=1.0 / qcomp=0.60 / qpmin=0 / qpmax=69 / qpstep=4 / cplxblur=20.0 / qblur=0.5 / ip_ratio=1.40 / aq=1:1.00
Язык : German
Default : Да
Forced : Нет

Аудио #1
Идентификатор : 2
Формат : AC-3
Формат/Информация : Audio Coding 3
Расширение режима : CM (complete main)
Идентификатор кодека : A_AC3
Продолжительность : 1 ч. 16 м.
Вид битрейта : Постоянный
Битрейт : 192 Кбит/сек
Каналы : 2 канала
Расположение каналов : Front: L R
Частота : 48,0 КГц
Битовая глубина : 16 бит
Метод сжатия : С потерями
Размер потока : 105 Мбайт (7%)
Язык : Russian
Default : Да
Forced : Нет

Аудио #2
Идентификатор : 3
Формат : AC-3
Формат/Информация : Audio Coding 3
Расширение режима : CM (complete main)
Идентификатор кодека : A_AC3
Продолжительность : 1 ч. 16 м.
Вид битрейта : Постоянный
Битрейт : 192 Кбит/сек
Каналы : 2 канала
Расположение каналов : Front: L R
Частота : 48,0 КГц
Битовая глубина : 16 бит
Метод сжатия : С потерями
Размер потока : 105 Мбайт (7%)
Язык : Ukrainian
Default : Нет
Forced : Нет





   Похожие торренты   Торрент   Размер 
В этой теме нет новых непрочитанных сообщений. Путешествие по Европе. Выпуск №22: Майорка (2006) DVD5 R5 от New-Team

0 | 2

3.61 ГБ

В этой теме нет новых непрочитанных сообщений. Видеоприложение к журналу «Путешествие по Европе» Выпуск №22: Майорка (2006) DVDRip от Youtracker

27 | 6

744.96 МБ

В этой теме нет новых непрочитанных сообщений. Видеоприложение к журналу «Путешествие по Европе» Выпуск №22: Майорка (2006) DVDRip от Youtracker

14 | 9

1.46 ГБ

В этой теме нет новых непрочитанных сообщений. Путешествие по Европе. Выпуск №41: Польша (2011) DVDRip от New-Team

4 | 3

742.22 МБ

В этой теме нет новых непрочитанных сообщений. Путешествие по Европе. Выпуск №24: Крит (2010) DVDRip от New-Team

0 | 1

1.46 ГБ

В этой теме нет новых непрочитанных сообщений. Путешествие по Европе. Выпуск №29: Шотландия (2009) DVDRip-AVC от New-Team

1 | 2

1.09 ГБ

В этой теме нет новых непрочитанных сообщений. Путешествие по Европе. Выпуск №29: Шотландия (2009) DVDRip от New-Team

2 | 3

743.17 МБ




Вы не можете начинать темы
Вы не можете отвечать на сообщения
Вы не можете редактировать свои сообщения
Вы не можете удалять свои сообщения
Вы не можете добавлять вложения

Перейти:  
Для Мосгорсуда, Роскомнадзора и рекламодателей: mosgorsud-torrent[собачка]yandex.ru
 Вход
ppkBB3cker v.2 © 2008-2014 @ PPK
[ Time : 0.028s | 16 Queries | GZIP : Off ]

cron