img image001 image001 image001 image001 image001 image001 image001 image001 image001 image001 image001 image001 image001 image001 image001

Planets Sun Sun Sun
Статистика раздачи
Автор: PriZraK | Размер: 914.2 МБ | Добавлен: 15 фев 2014
Раздают: 1    Качают: 2
Скачать торрент
Скачать торрент
Описание торрента

СообщениеДобавлено: 15 фев 2014 

Информация о фильме
Название: Карибские острова : Погружение с акулами
Оригинальное название: Adventure Carribean : Diving With Sharks
Год выхода: 2012
Жанр: Документальный
Режиссер: Юрген Климмек

О фильме:
Паря над океанской бездной, эти жестокие и завораживающие хищники, пугают и в то же время очаровывают, подчеркивая как красив и опасен подводный мир тропической Атлантики. Неповторимый эффект присутствия и экстремальная близость к акулам, властвующим на бескрайних просторах Карибского моря, заставит вас испытать ни с чем не сравнимые ощущения.

Страна: Германия, KSM
Продолжительность: 00:53:38
Перевод: Профессиональный одноголосый
Дата релиза: 12.08.2013

Файл
Кодек: H.264
Качество: BDRip (AVC)
Видео: MPEG-4 AVC, 1999 Кбит/с, 1024x576
Звук: Русский (AC3, 6 ch, 384 Кбит/с)

Общее
Уникальный идентификатор : 250113031150137015428873215762108719418 (0xBC2A04829218D41099D30F52B053213A)
Полное имя : E:3Karibskie.ostrova.Pogruzhenie.s.akulami.2012.x264.BDRip.(AVC).ExKinoRay.mkv
Формат : Matroska
Размер файла : 914 Мбайт
Продолжительность : 53 м.
Общий поток : 2383 Кбит/сек
Название фильма : Karibskie.ostrova.Pogruzhenie.s.akulami.2012.x264.BDRip.(AVC).ExKinoRay
Дата кодирования : UTC 2013-08-12 09:13:07
Программа кодирования : mkvmerge v4.0.0 ('The Stars were mine') сборка от Jun 6 2010 16:18:42
Библиотека кодирования : libebml v1.0.0 + libmatroska v1.0.0

Видео
Идентификатор : 1
Формат : AVC
Формат/Информация : Advanced Video Codec
Профиль формата : High@L4.1
Параметр CABAC формата : Да
Параметр ReFrames формата : 8 кадров
Идентификатор кодека : V_MPEG4/ISO/AVC
Продолжительность : 53 м.
Битрейт : 1999 Кбит/сек
Ширина : 1024 пикс.
Высота : 576 пикс.
Соотношение сторон : 16:9
Частота кадров : 23,976 кадр/сек
Цветовое пространство : YUV
Подвыборка цветности : 4:2:0
Битовая глубина : 8 бит
Тип развёртки : Прогрессивная
Бит/(Пиксели*Кадры) : 0.141
Размер потока : 749 Мбайт (82%)
Заголовок : Rip by Enigma-Vladislav71
Библиотека кодирования : x264 core 129 r2245 bc13772
Настройки программы : cabac=1 / ref=8 / deblock=1:-2:-2 / analyse=0x3:0x133 / me=umh / subme=11 / psy=1 / psy_rd=1.00:0.00 / mixed_ref=1 / me_range=48 / chroma_me=1 / trellis=2 / 8x8dct=1 / cqm=0 / deadzone=21,11 / fast_pskip=0 / chroma_qp_offset=-2 / threads=3 / lookahead_threads=1 / sliced_threads=0 / nr=0 / decimate=0 / interlaced=0 / bluray_compat=0 / constrained_intra=0 / bframes=8 / b_pyramid=2 / b_adapt=2 / b_bias=0 / direct=3 / weightb=1 / open_gop=0 / weightp=2 / keyint=240 / keyint_min=23 / scenecut=40 / intra_refresh=0 / rc_lookahead=40 / rc=2pass / mbtree=1 / bitrate=1999 / ratetol=1.0 / qcomp=0.60 / qpmin=10 / qpmax=51 / qpstep=4 / cplxblur=20.0 / qblur=0.5 / ip_ratio=1.40 / aq=2:1.00
Язык : English

Аудио
Идентификатор : 2
Формат : AC-3
Формат/Информация : Audio Coding 3
Расширение режима : CM (complete main)
Идентификатор кодека : A_AC3
Продолжительность : 53 м.
Вид битрейта : Постоянный
Битрейт : 384 Кбит/сек
Каналы : 6 каналов
Расположение каналов : Front: L C R, Side: L R, LFE
Частота : 48,0 КГц
Битовая глубина : 16 бит
Метод сжатия : С потерями
Размер потока : 147 Мбайт (16%)
Язык : Russian



Релиз от:

Авторы релиза:



   Похожие торренты   Торрент   Размер 
В этой теме нет новых непрочитанных сообщений. Карибские острова : Погружение с акулами / Adventure Carribean : Diving With Sharks (2012) BDRip от ExKinoRay

0 | 2

700.61 МБ

В этой теме нет новых непрочитанных сообщений. Багамские острова: Таинственные пещеры и затонувшие корабли / Adventure Bahamas (2012) BDRip-AVC от ExKinoRay

77 | 5

971.03 МБ

В этой теме нет новых непрочитанных сообщений. Багамские острова: Таинственные пещеры и затонувшие корабли / Adventure Bahamas (2012) BDRip от ExKinoRay

144 | 5

700.7 МБ

В этой теме нет новых непрочитанных сообщений. Погружение в лабиринт / Diving The Labyrinth / Blue Holes. Tauchen im Labyrinth (2010) BDRip [720p] от HQ-ViDEO.

3 | 6

3.04 ГБ

В этой теме нет новых непрочитанных сообщений. Золотой глобус. Выпуск 81. Карибские острова. Аруба, Бонайре, Кюрасао (2011) DVDRip от KinoZalSat

8 | 2

701.88 МБ

В этой теме нет новых непрочитанных сообщений. Азорские острова. Часть 2: Киты, вулканы, открыватели / Azores 3D: Sharks, Whales, Manta Rays (2011) HDRip от ExKinoRay

3 | 2

700.6 МБ

В этой теме нет новых непрочитанных сообщений. Азорские острова. Часть 1: Акулы, киты, манты / Azores: Sharks, Whales, Manta Rays (2011) HDRip от ExKinoRay

5 | 4

870.16 МБ




Вы не можете начинать темы
Вы не можете отвечать на сообщения
Вы не можете редактировать свои сообщения
Вы не можете удалять свои сообщения
Вы не можете добавлять вложения

Перейти:  
Для Мосгорсуда, Роскомнадзора и рекламодателей: mosgorsud-torrent[собачка]yandex.ru
 Вход
ppkBB3cker v.2 © 2008-2014 @ PPK
[ Time : 0.043s | 16 Queries | GZIP : Off ]

cron