img image001 image001 image001 image001 image001 image001 image001 image001 image001 image001 image001 image001 image001 image001 image001

Planets Sun Sun Sun
Статистика раздачи
Автор: PriZraK | Размер: 700.47 МБ | Добавлен: 15 фев 2014
Раздают: 3    Качают: 2
Скачать торрент
Скачать торрент
Описание торрента

СообщениеДобавлено: 15 фев 2014 

Нашествие крокодилов
Croc Invasion




Год выпуска: 2012
Страна: США
Жанр: Документальный
Продолжительность: 00:44:59
Перевод: Профессиональный (дублированный) | Игорь Тарадайкин / АРК·ТВ
Русские субтитры: нет


Режиссер: Бьянка Кили / Bianca Keeley

Описание: Каждый год в северной части Австралии десятки массивных морских крокодилов вторгаются на крошечный остров, чтобы принять участие в поедании плоских черепах и их детенышей. Это единственное место в мире, где крокодилы массово собираются, чтобы пообедать морскими черепахами. В этой потрясающей документальной программе мы впервые расскажем о жизни и поведении морских крокодилов, развитии стратегии их охоты и жизни их любопытной добычи.


Автор рипа: Leo.pard
Исходник: HDTV 1080i Спасибо LeXa 84!


Kачество: HDTVRip
Формат: AVI
Видео: XviD, 720x400 (16:9), 1975 Kbps, 25 fps
Аудио: MP2, 192 Kbps, 48 KHz, 2 channels

Сэмпл: http://multi-up.com/893396

General
Complete name : D:Nashestvie.krokodilov.2012.HDTVRip.avi
Format : AVI
Format/Info : Audio Video Interleave
File size : 700 MiB
Duration : 44mn 59s
Overall bit rate : 2 176 Kbps
Writing application : VirtualDubMod 1.5.10.3 | www.virtualdub-fr.org || (build 2550/release)
Writing library : VirtualDubMod build 2550/release

Video
ID : 0
Format : MPEG-4 Visual
Format profile : Advanced Simple@L5
Format settings, BVOP : 1
Format settings, QPel : No
Format settings, GMC : No warppoints
Format settings, Matrix : Custom
Codec ID : XVID
Codec ID/Hint : XviD
Duration : 44mn 59s
Bit rate : 1 975 Kbps
Width : 720 pixels
Height : 400 pixels
Display aspect ratio : 16:9
Frame rate : 25.000 fps
Color space : YUV
Chroma subsampling : 4:2:0
Bit depth : 8 bits
Scan type : Progressive
Compression mode : Lossy
Bits/(Pixel*Frame) : 0.274
Stream size : 636 MiB (91%)
Writing library : XviD 73

Audio
ID : 1
Format : MPEG Audio
Format version : Version 1
Format profile : Layer 2
Codec ID : 50
Duration : 44mn 59s
Bit rate mode : Constant
Bit rate : 192 Kbps
Channel(s) : 2 channels
Sampling rate : 48.0 KHz
Compression mode : Lossy
Stream size : 61.8 MiB (9%)
Alignment : Aligned on interleaves
Interleave, duration : 40 ms (1.00 video frame)
Interleave, preload duration : 504 ms







   Похожие торренты   Торрент   Размер 
В этой теме нет новых непрочитанных сообщений. Nat Geo Wild: Нашествие крокодилов / Croc Invasion (2012) HDTVRip-AVC от Leo.pard | D

1 | 2

700.77 МБ

В этой теме нет новых непрочитанных сообщений. Discovery. Легенда о золоте крокодилов / The Legend of Croc Gold [01] (2016) HDTVRip от GeneralFilm | P

55 | 48

10.29 ГБ

В этой теме нет новых непрочитанных сообщений. Discovery. Легенда о золоте крокодилов / The Legend of Croc Gold [01] (2016) HDTVRip от HitWay | P

0 | 0

1.61 ГБ

В этой теме нет новых непрочитанных сообщений. Discovery. Легенда о золоте крокодилов / The Legend of Croc Gold [01] (2016) HDTVRip от GeneralFilm | P

0 | 0

3.86 ГБ

В этой теме нет новых непрочитанных сообщений. Discovery. Легенда о золоте крокодилов / The Legend of Croc Gold [01] (2016) HDTVRip от HitWay | P

0 | 0

2.14 ГБ

В этой теме нет новых непрочитанных сообщений. Discovery. Легенда о золоте крокодилов / The Legend of Croc Gold [01] (2016) HDTVRip от HitWay | P

0 | 0

2.67 ГБ

В этой теме нет новых непрочитанных сообщений. Discovery. Легенда о золоте крокодилов / The Legend of Croc Gold [01] (2016) HDTVRip от GeneralFilm | P

9 | 6

5.14 ГБ




Вы не можете начинать темы
Вы не можете отвечать на сообщения
Вы не можете редактировать свои сообщения
Вы не можете удалять свои сообщения
Вы не можете добавлять вложения

Перейти:  
Для Мосгорсуда, Роскомнадзора и рекламодателей: mosgorsud-torrent[собачка]yandex.ru
 Вход
ppkBB3cker v.2 © 2008-2014 @ PPK
[ Time : 0.048s | 16 Queries | GZIP : Off ]

Торрент трекер RUTOR.IN, Не можете зайти на rutor.org? Какой новый адрес рутор? Какое зеркало рутор? Не работает rutor.org и зеркала? Тогда наш торрент специально для вас. Rutor.in неофициальное зеркало rutor. В случае если у Вас заблокирован rutor или вдруг Вы не можете на него зайти, то Вы без труда сможете скачать бесплатно и без рекламы последние новинки кино, игр, сериалов и прочего у нас, на Rutor.in. Не нужно использовать прокси, чтобы зайти на рутор, достаточно воспользоваться нашим ресурсом. Все новые фильмы, игры, сериалы, книги и музыка за 2013 и 2014 годы через торрент бесплатно. Скачивайте фильмы в хорошем качестве, игры для пк, xbox, playstation без регистрации. У нас вы найдете новые Зарубежные сериалы и Русские сериалы 2013, 2014, 2015 годов. Оставайтесь с нами, качайте любимые фильмы, игры, сериалы, книги и музыку.
cron