img image001 image001 image001 image001 image001 image001 image001 image001 image001 image001 image001 image001 image001 image001 image001

Planets Sun Sun Sun
Статистика раздачи
Автор: PriZraK | Размер: 975.03 МБ | Добавлен: 15 фев 2014
Раздают: 6    Качают: 2
Скачать торрент
Скачать торрент
Описание торрента

СообщениеДобавлено: 15 фев 2014 

Информация о фильме
Название: Поезда
Оригинальное название: HD Moods - Trains
Год выхода: 2009
Жанр: Документальный, релаксация

О фильме:
Для всех кто не равнодушен к паровозам, кто восхищается этими гигантам и приходит в восторг от рева приближающего поезда… HD Moods приготовила подарок. Вам предстоит увидеть лучшие модели некогда легендарных паровозов. Захватывающие звуки и музыка из кинофильмов помогут Вам проникнуть в атмосферу времени этих железных махин!

Страна: США
Продолжительность: 01:08:25
Перевод: Не требуется
Дата релиза: 13.07.2013

Файл
Кодек: H.264
Качество: BDRip (AVC)
Видео: MPEG-4 AVC, 1799 Кбит/с, 1024x576
Звук: AC3, 2 ch, 192 Кбит/с

Общее
Уникальный идентификатор : 253750648649303401287895267303357408321 (0xBEE698E64D72E45EBDCB71F0945FE441)
Полное имя : E:2Poezda.2009.x264.BDRip.(AVC).ExKinoRay.mkv
Формат : Matroska
Размер файла : 975 Мбайт
Продолжительность : 1 ч. 8 м.
Общий поток : 1992 Кбит/сек
Название фильма : Poezda.2009.x264.BDRip.(AVC).ExKinoRay
Дата кодирования : UTC 2013-08-13 13:22:28
Программа кодирования : mkvmerge v4.0.0 ('The Stars were mine') сборка от Jun 6 2010 16:18:42
Библиотека кодирования : libebml v1.0.0 + libmatroska v1.0.0

Видео
Идентификатор : 1
Формат : AVC
Формат/Информация : Advanced Video Codec
Профиль формата : High@L4.1
Параметр CABAC формата : Да
Параметр ReFrames формата : 8 кадров
Идентификатор кодека : V_MPEG4/ISO/AVC
Продолжительность : 1 ч. 8 м.
Битрейт : 1799 Кбит/сек
Ширина : 1024 пикс.
Высота : 576 пикс.
Соотношение сторон : 16:9
Частота кадров : 29,970 кадр/сек
Цветовое пространство : YUV
Подвыборка цветности : 4:2:0
Битовая глубина : 8 бит
Тип развёртки : Прогрессивная
Бит/(Пиксели*Кадры) : 0.102
Размер потока : 862 Мбайт (88%)
Заголовок : Rip by Enigma-Vladislav71
Библиотека кодирования : x264 core 129 r2245 bc13772
Настройки программы : cabac=1 / ref=8 / deblock=1:-2:-2 / analyse=0x3:0x133 / me=umh / subme=11 / psy=1 / psy_rd=1.00:0.00 / mixed_ref=1 / me_range=48 / chroma_me=1 / trellis=2 / 8x8dct=1 / cqm=0 / deadzone=21,11 / fast_pskip=0 / chroma_qp_offset=-2 / threads=3 / lookahead_threads=1 / sliced_threads=0 / nr=0 / decimate=0 / interlaced=0 / bluray_compat=0 / constrained_intra=0 / bframes=8 / b_pyramid=2 / b_adapt=2 / b_bias=0 / direct=3 / weightb=1 / open_gop=0 / weightp=2 / keyint=300 / keyint_min=29 / scenecut=40 / intra_refresh=0 / rc_lookahead=40 / rc=2pass / mbtree=1 / bitrate=1799 / ratetol=1.0 / qcomp=0.60 / qpmin=10 / qpmax=51 / qpstep=4 / cplxblur=20.0 / qblur=0.5 / ip_ratio=1.40 / aq=2:1.00
Язык : English

Аудио
Идентификатор : 2
Формат : AC-3
Формат/Информация : Audio Coding 3
Расширение режима : CM (complete main)
Идентификатор кодека : A_AC3
Продолжительность : 1 ч. 8 м.
Вид битрейта : Постоянный
Битрейт : 192 Кбит/сек
Каналы : 2 канала
Расположение каналов : Front: L R
Частота : 48,0 КГц
Битовая глубина : 16 бит
Метод сжатия : С потерями
Размер потока : 94,0 Мбайт (10%)
Язык : Russian



Релиз от:

Авторы релиза:



   Похожие торренты   Торрент   Размер 
В этой теме нет новых непрочитанных сообщений. Наука катастроф - Поезда / Crash science - Trains (2008) TVRip

0 | 1

449.13 МБ

В этой теме нет новых непрочитанных сообщений. HD Moods: Горы / HD Moods: Mountains (2008) BDRip от ExKinoRay

4 | 7

1.13 ГБ

В этой теме нет новых непрочитанных сообщений. National Geographic. Суперсооружения: Поезда будущего / National Geographic. MegaStructures: Future Trains (2008) SATRip от tenow

1 | 2

528.46 МБ

В этой теме нет новых непрочитанных сообщений. HD Moods: Аквариум / HD Moods: Aquarium (2008) BDRip от HQ-VIDEO

68 | 3

1.46 ГБ

В этой теме нет новых непрочитанных сообщений. HD Moods: Цветы / HD Moods: Flowers (2008) BDRip от HQ-ViDEO

3 | 2

1.76 ГБ

В этой теме нет новых непрочитанных сообщений. Опасные пассажиры поезда 123 / The Taking of Pelham 1 2 3 (2009) BDRip-AVC | iPad | D

2 | 7

3.04 ГБ

В этой теме нет новых непрочитанных сообщений. Опасные пассажиры поезда 123 / The Taking of Pelham 1 2 3 (2009) BDRip от HQCLUB

10 | 6

2.51 ГБ




Вы не можете начинать темы
Вы не можете отвечать на сообщения
Вы не можете редактировать свои сообщения
Вы не можете удалять свои сообщения
Вы не можете добавлять вложения

Перейти:  
Для Мосгорсуда, Роскомнадзора и рекламодателей: mosgorsud-torrent[собачка]yandex.ru
 Вход
ppkBB3cker v.2 © 2008-2014 @ PPK
[ Time : 0.113s | 15 Queries | GZIP : Off ]

Торрент трекер RUTOR.IN, Не можете зайти на rutor.org? Какой новый адрес рутор? Какое зеркало рутор? Не работает rutor.org и зеркала? Тогда наш торрент специально для вас. Rutor.in неофициальное зеркало rutor. В случае если у Вас заблокирован rutor или вдруг Вы не можете на него зайти, то Вы без труда сможете скачать бесплатно и без рекламы последние новинки кино, игр, сериалов и прочего у нас, на Rutor.in. Не нужно использовать прокси, чтобы зайти на рутор, достаточно воспользоваться нашим ресурсом. Все новые фильмы, игры, сериалы, книги и музыка за 2013 и 2014 годы через торрент бесплатно. Скачивайте фильмы в хорошем качестве, игры для пк, xbox, playstation без регистрации. У нас вы найдете новые Зарубежные сериалы и Русские сериалы 2013, 2014, 2015 годов. Оставайтесь с нами, качайте любимые фильмы, игры, сериалы, книги и музыку.