img image001 image001 image001 image001 image001 image001 image001 image001 image001 image001 image001 image001 image001 image001 image001

Planets Sun Sun Sun
Статистика раздачи
Автор: PriZraK | Размер: 1.75 ГБ | Добавлен: 15 фев 2014
Раздают: 4    Качают: 2
Скачать торрент
Скачать торрент
Описание торрента

СообщениеДобавлено: 15 фев 2014 

Информация о фильме
Название: Амбра
Оригинальное название: Ambra Experience
Год выхода: 2008
Жанр: Relax
Режиссер: Гогол Лобмайр
Композитор: Джорджо и Мартин Коуп

О фильме:
Расслабляющий видеоряд красивейших видов природы из разных частей света под медитативную музыку, созданый на основе завораживающих своей красотой пейзажей снятых Гоголом Лобмайром. Любителям созерцать красоты природы под волшебную музыку посвящается... Насладитесь восхитительными пейзажами живой природы под электронную музыку с многоканальным миксом.

Страна: Германия
Продолжительность: 00:37:54
Перевод: Не требуется
Дата релиза: 13.07.2013

Файл
Кодек: H.264
Качество: BDRip (720р)
Видео: MPEG-4 AVC, 5081 Кбит/с, 1280x720
Звук: DTS, 6 ch, 1510 Кбит/с

Общее
Уникальный идентификатор : 230603584115348611981957379967455793070 (0xAD7CA281CC91B517B3A86F67E95B0FAE)
Полное имя : E:4Ambra.2008.x264.BDRip.(720p).ExKinoRay.mkv
Формат : Matroska
Размер файла : 1,75 Гбайт
Продолжительность : 37 м.
Общий поток : 6593 Кбит/сек
Название фильма : Ambra.2008.x264.BDRip.(720p).ExKinoRay
Дата кодирования : UTC 2013-08-13 13:31:03
Программа кодирования : mkvmerge v4.0.0 ('The Stars were mine') сборка от Jun 6 2010 16:18:42
Библиотека кодирования : libebml v1.0.0 + libmatroska v1.0.0

Видео
Идентификатор : 1
Формат : AVC
Формат/Информация : Advanced Video Codec
Профиль формата : High@L4.1
Параметр CABAC формата : Да
Параметр ReFrames формата : 8 кадров
Идентификатор кодека : V_MPEG4/ISO/AVC
Продолжительность : 37 м.
Битрейт : 5081 Кбит/сек
Ширина : 1280 пикс.
Высота : 720 пикс.
Соотношение сторон : 16:9
Частота кадров : 25,000 кадр/сек
Цветовое пространство : YUV
Подвыборка цветности : 4:2:0
Битовая глубина : 8 бит
Тип развёртки : Прогрессивная
Бит/(Пиксели*Кадры) : 0.221
Размер потока : 1,31 Гбайт (75%)
Заголовок : Rip by Enigma-Vladislav71
Библиотека кодирования : x264 core 125 r2208 d9d2288
Настройки программы : cabac=1 / ref=8 / deblock=1:-3:-3 / analyse=0x3:0x133 / me=umh / subme=11 / psy=1 / psy_rd=1.00:0.00 / mixed_ref=1 / me_range=48 / chroma_me=1 / trellis=2 / 8x8dct=1 / cqm=0 / deadzone=21,11 / fast_pskip=0 / chroma_qp_offset=-2 / threads=3 / lookahead_threads=1 / sliced_threads=0 / nr=0 / decimate=1 / interlaced=0 / bluray_compat=0 / constrained_intra=0 / bframes=8 / b_pyramid=2 / b_adapt=2 / b_bias=0 / direct=3 / weightb=1 / open_gop=0 / weightp=2 / keyint=250 / keyint_min=25 / scenecut=40 / intra_refresh=0 / rc_lookahead=50 / rc=2pass / mbtree=1 / bitrate=5081 / ratetol=1.0 / qcomp=0.60 / qpmin=10 / qpmax=51 / qpstep=4 / cplxblur=20.0 / qblur=0.5 / ip_ratio=1.40 / aq=1:1.00
Язык : English

Аудио
Идентификатор : 2
Формат : DTS
Формат/Информация : Digital Theater Systems
Идентификатор кодека : A_DTS
Продолжительность : 37 м.
Вид битрейта : Постоянный
Битрейт : 1510 Кбит/сек
Каналы : 6 каналов
Расположение каналов : Front: L C R, Side: L R, LFE
Частота : 48,0 КГц
Битовая глубина : 16 бит
Метод сжатия : С потерями
Размер потока : 409 Мбайт (23%)
Язык : English

Меню
00:00:00.000 : en:Chapter 01
00:05:00.000 : en:Chapter 02
00:10:00.000 : en:Chapter 03
00:15:00.000 : en:Chapter 04
00:20:00.000 : en:Chapter 05
00:25:00.000 : en:Chapter 06
00:30:00.000 : en:Chapter 07
00:35:00.000 : en:Chapter 08



Релиз от:

Авторы релиза:



   Похожие торренты   Торрент   Размер 
В этой теме нет новых непрочитанных сообщений. Амбра / Ambra Experience (2008) BDRip-AVC от ExKinoRay

2 | 1

664.74 МБ

В этой теме нет новых непрочитанных сообщений. Амбра / Ambra Experience (2008) BDRip от HQ-ViDEO

1 | 1

743.58 МБ

В этой теме нет новых непрочитанных сообщений. Амбра / Ambra Experience (2008) Blu-Ray

2 | 6

10 ГБ

В этой теме нет новых непрочитанных сообщений. Амбра / Ambra Experience (2008) HDRip от Generalfilm

2 | 4

1.37 ГБ

В этой теме нет новых непрочитанных сообщений. Ambra Experience (2008) BDRip 720p

25 | 3

2.88 ГБ

В этой теме нет новых непрочитанных сообщений. Room Experience - Room Experience [Limited Edition] (2015) MP3 от BestSound ExKinoRay

31 | 3

147.68 МБ

В этой теме нет новых непрочитанных сообщений. Изучая природу / Experience Nature (2012) BDRip от ExKinoRay

20 | 2

603.26 МБ




Вы не можете начинать темы
Вы не можете отвечать на сообщения
Вы не можете редактировать свои сообщения
Вы не можете удалять свои сообщения
Вы не можете добавлять вложения

Перейти:  
Для Мосгорсуда, Роскомнадзора и рекламодателей: mosgorsud-torrent[собачка]yandex.ru
 Вход
ppkBB3cker v.2 © 2008-2014 @ PPK
[ Time : 0.020s | 15 Queries | GZIP : Off ]

Торрент трекер RUTOR.IN, Не можете зайти на rutor.org? Какой новый адрес рутор? Какое зеркало рутор? Не работает rutor.org и зеркала? Тогда наш торрент специально для вас. Rutor.in неофициальное зеркало rutor. В случае если у Вас заблокирован rutor или вдруг Вы не можете на него зайти, то Вы без труда сможете скачать бесплатно и без рекламы последние новинки кино, игр, сериалов и прочего у нас, на Rutor.in. Не нужно использовать прокси, чтобы зайти на рутор, достаточно воспользоваться нашим ресурсом. Все новые фильмы, игры, сериалы, книги и музыка за 2013 и 2014 годы через торрент бесплатно. Скачивайте фильмы в хорошем качестве, игры для пк, xbox, playstation без регистрации. У нас вы найдете новые Зарубежные сериалы и Русские сериалы 2013, 2014, 2015 годов. Оставайтесь с нами, качайте любимые фильмы, игры, сериалы, книги и музыку.