img image001 image001 image001 image001 image001 image001 image001 image001 image001 image001 image001 image001 image001 image001 image001

Planets Sun Sun Sun
Статистика раздачи
Автор: PriZraK | Размер: 700.62 МБ | Добавлен: 15 фев 2014
Раздают: 0    Качают: 2
Скачать торрент
Скачать торрент
Описание торрента

СообщениеДобавлено: 15 фев 2014 

Американская пума
American Cougar




Год выпуска: 2011
Страна: США
Жанр: Документальный
Продолжительность: 00:44:59
Перевод: Профессиональный (одноголосый закадровый) | Денис Некрасов / АРК·ТВ
Русские субтитры: нет


Режиссер: Джеф Хоган / Jeff Hogan

Описание: За последние 10 лет жизнь для пумы в Джексон Хоул и прилегающих районах резко изменилась. Некогда стоящие на вершине хищного мира лишь с небольшой конкуренцией со стороны других животных, теперь пумы вынуждены делить свою территорию с другими охотниками высокого уровня, такими как волки из парка Йеллоустоун и медведи гризли, популяция которых все увеличивается. Используя высокотехнологичне науки, исследовательские работы и нашу передвижную лабораторию для наблюдения за животными, Брун Смит примет участие в нашем путешествии, чтобы раскрыть нам те приемы, которая использует пума, чтобы выжить в этой новой враждебной среде. Этот совершенно новый взгляд на пум приближает нас к ним, как никогда раньше.


Автор рипа: Leo.pard
Исходник: HDTV 1080i Спасибо LeXa 84!


Kачество: HDTVRip-AVC
Формат: MKV
Видео: x264, 1008x568 (16:9), 1983 Kbps, 25 fps
Аудио: MP2, 192 Kbps, 48 KHz, 2 channels

Сэмпл: http://multi-up.com/894693

General
Unique ID : 186620452443875671052305699372754806479 (0x8C65CAB0C3183F858AD41F2201CC26CF)
Complete name : D:Amerikanskaja.puma.2011.HDTVRip-AVC.mkv
Format : Matroska
Format version : Version 2
File size : 701 MiB
Duration : 44mn 59s
Overall bit rate : 2 177 Kbps
Encoded date : UTC 2013-08-26 20:10:34
Writing application : mkvmerge v6.1.0 ('Old Devil') built on Mar 4 2013 09:10:42
Writing library : libebml v1.3.0 + libmatroska v1.4.0

Video
ID : 1
Format : AVC
Format/Info : Advanced Video Codec
Format profile : High@L4.1
Format settings, CABAC : Yes
Format settings, ReFrames : 11 frames
Codec ID : V_MPEG4/ISO/AVC
Duration : 44mn 59s
Bit rate : 1 983 Kbps
Width : 1 008 pixels
Height : 568 pixels
Display aspect ratio : 16:9
Frame rate : 25.000 fps
Color space : YUV
Chroma subsampling : 4:2:0
Bit depth : 8 bits
Scan type : Progressive
Bits/(Pixel*Frame) : 0.139
Stream size : 625 MiB (89%)
Writing library : x264 core 130 r2273 b3065e6
Encoding settings : cabac=1 / ref=11 / deblock=1:-2:-1 / analyse=0x3:0x113 / me=umh / subme=9 / psy=1 / psy_rd=1.00:0.20 / mixed_ref=1 / me_range=32 / chroma_me=1 / trellis=1 / 8x8dct=1 / cqm=0 / deadzone=21,11 / fast_pskip=0 / chroma_qp_offset=-3 / threads=3 / lookahead_threads=1 / sliced_threads=0 / nr=0 / decimate=0 / interlaced=0 / bluray_compat=0 / constrained_intra=0 / bframes=8 / b_pyramid=2 / b_adapt=2 / b_bias=0 / direct=3 / weightb=1 / open_gop=0 / weightp=2 / keyint=250 / keyint_min=25 / scenecut=40 / intra_refresh=0 / rc_lookahead=60 / rc=2pass / mbtree=1 / bitrate=1983 / ratetol=1.0 / qcomp=0.60 / qpmin=0 / qpmax=69 / qpstep=4 / cplxblur=20.0 / qblur=0.5 / ip_ratio=1.40 / aq=1:1.00

Audio
ID : 2
Format : MPEG Audio
Format version : Version 1
Format profile : Layer 2
Codec ID : A_MPEG/L2
Codec ID/Hint : MP2
Duration : 44mn 59s
Bit rate mode : Constant
Bit rate : 192 Kbps
Channel(s) : 2 channels
Sampling rate : 48.0 KHz
Compression mode : Lossy
Stream size : 61.8 MiB (9%)
Language : English







   Похожие торренты   Торрент   Размер 
В этой теме нет новых непрочитанных сообщений. Nat Geo Wild: Американская пума / American Cougar (2011) HDTVRip от Leo.pard | P1

0 | 2

699.47 МБ

В этой теме нет новых непрочитанных сообщений. Nat Geo Wild: Пума против волка / Cougar vs Wolf (2013) HDTVRip-AVC от Leo.pard | P1

77 | 12

700.33 МБ

В этой теме нет новых непрочитанных сообщений. Nat Geo Wild: Пума против волка / Cougar vs Wolf (2013) HDTVRip от Leo.pard | P1

127 | 28

700.24 МБ

В этой теме нет новых непрочитанных сообщений. Nat Geo Wild: Американский тигр / American Tiger (2012) HDTVRip от Leo.pard | D

18 | 8

700.12 МБ

В этой теме нет новых непрочитанных сообщений. Nat Geo Wild: Американский тигр / American Tiger (2012) HDTVRip-AVC от Leo.pard | D

12 | 3

700.46 МБ

В этой теме нет новых непрочитанных сообщений. Nat Geo Wild: Дикая сторона кошек / Wild Side of Cats (2012) HDTVRip от Leo.pard | P1

2 | 2

700.43 МБ

В этой теме нет новых непрочитанных сообщений. Nat Geo Wild: Дикая сторона кошек / Wild Side of Cats (2012) HDTVRip-AVC от Leo.pard | P1

4 | 2

700.55 МБ




Вы не можете начинать темы
Вы не можете отвечать на сообщения
Вы не можете редактировать свои сообщения
Вы не можете удалять свои сообщения
Вы не можете добавлять вложения

Перейти:  
Для Мосгорсуда, Роскомнадзора и рекламодателей: mosgorsud-torrent[собачка]yandex.ru
 Вход
ppkBB3cker v.2 © 2008-2014 @ PPK
[ Time : 0.089s | 17 Queries | GZIP : Off ]

cron