img image001 image001 image001 image001 image001 image001 image001 image001 image001 image001 image001 image001 image001 image001 image001

Planets Sun Sun Sun
Статистика раздачи
Автор: PriZraK | Размер: 6.95 ГБ | Добавлен: 15 фев 2014
Раздают: 191    Качают: 9
Скачать торрент
Скачать торрент
Описание торрента

СообщениеДобавлено: 15 фев 2014 

Коралловый риф 3D: Подводный мир Египта
Abenteuer Korallenriff: Die unterwasserwelt Ägyptens
Adventure Coral Reef: Under the Sea of Egypt



Год выпуска: 2012
Страна: Германия (3D-Media International)
Жанр: Документальный, Видовой
Продолжительность: 00:50:41

Перевод: Профессиональный одноголосый закадровый (BD3D)

Режиссер: Питер Лорд / Peter Lord

Описание: Подводный мир Красного моря в Египте не просто красив — он сказочно красив. Кораллы, гигантские скаты, миллионы рыб самой разнообразной раскраски, затонувшие корабли. Этот мир вас будет тянуть к себе с такой силой, что вы будите возвращаться туда снова и снова, чтобы испытать тот неописуемый восторг, радость первых открытий, ощущения умиротворенности и просто счастья. Совершите фантастическое путешествие не выходя из дома.



Релиз на Blu-Ray (DVD): 22 мая 2013 (6 июня 2013)





Качество: BDRip (by Ash61)
Контейнер: MKV
Формат 3D: Half OverUnder / Вертикальная анаморфная стереопара
Порядок ракурсов: левый ракурс первый
Видео кодек: x264
Аудио кодек: AC3



Видео: AVC / 23,976 fps / 1920х1080p / 17,3 Mbps

Аудио:
#1 - Русский / AC3 / 48 KHz / 5.1 ch / 640 Kbps (VO - BD3D)
#2 - Английский / AC3 / 48 KHz / 5.1 ch / 640 Kbps
#3 - Instrumental / AC3 / 48 KHz / 5.1 ch / 640 Kbps

Субтитры: Отсутствуют

General
Unique ID : 192083138259821815786630681779348941434 (0x9081DDE5349350E09A5AD27CDDCFAA7A)
Complete name : E:DownloadsAdventureCoralReef.UnderTheSeaOfEgypt(3D-halfOU)2012(Ash61).mkv
Format : Matroska
Format version : Version 2
File size : 6.95 GiB
Duration : 50mn 41s
Overall bit rate : 19.6 Mbps
Movie name : Коралловый риф 3D: Подводный мир Египта / Adventure Coral Reef: Under the Sea of Egypt (3D) 2012
Encoded date : UTC 2013-08-04 12:43:05
Writing application : mkvmerge v5.8.0 ('No Sleep / Pillow') built on Sep 2 2012 15:37:04
Writing library : libebml v1.2.3 + libmatroska v1.3.0

Video
ID : 1
Format : AVC
Format/Info : Advanced Video Codec
Format profile : High@L4.1
Format settings, CABAC : Yes
Format settings, ReFrames : 4 frames
Codec ID : V_MPEG4/ISO/AVC
Bit rate : 17.3 Mbps
Width : 1 920 pixels
Height : 1 080 pixels
Display aspect ratio : 16:9
Frame rate mode : Variable
Original frame rate : 23.976 fps
Color space : YUV
Chroma subsampling : 4:2:0
Bit depth : 8 bits
Scan type : Progressive
Title : BDRip by Ash61
Writing library : x264 core 129 r2245 bc13772
Encoding settings : cabac=1 / ref=4 / deblock=1:-1:-1 / analyse=0x3:0x113 / me=umh / subme=9 / psy=1 / psy_rd=1.00:0.15 / mixed_ref=1 / me_range=32 / chroma_me=1 / trellis=2 / 8x8dct=1 / cqm=0 / deadzone=21,11 / fast_pskip=1 / chroma_qp_offset=-3 / threads=12 / lookahead_threads=2 / sliced_threads=0 / nr=0 / decimate=1 / interlaced=0 / bluray_compat=0 / constrained_intra=0 / bframes=7 / b_pyramid=2 / b_adapt=2 / b_bias=0 / direct=3 / weightb=1 / open_gop=0 / weightp=2 / keyint=250 / keyint_min=23 / scenecut=40 / intra_refresh=0 / rc_lookahead=60 / rc=crf / mbtree=1 / crf=18.0 / qcomp=0.70 / qpmin=10 / qpmax=69 / qpstep=4 / vbv_maxrate=40000 / vbv_bufsize=30000 / crf_max=0.0 / nal_hrd=none / frame-packing=4 / ip_ratio=1.40 / aq=1:0.70
Language : German
Default : Yes
Forced : No

Audio #1
ID : 2
Format : AC-3
Format/Info : Audio Coding 3
Mode extension : CM (complete main)
Format settings, Endianness : Big
Codec ID : A_AC3
Duration : 50mn 41s
Bit rate mode : Constant
Bit rate : 640 Kbps
Channel(s) : 6 channels
Channel positions : Front: L C R, Side: L R, LFE
Sampling rate : 48.0 KHz
Bit depth : 16 bits
Compression mode : Lossy
Stream size : 232 MiB (3%)
Title : Дубляж - BD3D
Language : Russian
Default : Yes
Forced : No

Audio #2
ID : 3
Format : AC-3
Format/Info : Audio Coding 3
Mode extension : CM (complete main)
Format settings, Endianness : Big
Codec ID : A_AC3
Duration : 50mn 41s
Bit rate mode : Constant
Bit rate : 640 Kbps
Channel(s) : 6 channels
Channel positions : Front: L C R, Side: L R, LFE
Sampling rate : 48.0 KHz
Bit depth : 16 bits
Compression mode : Lossy
Stream size : 232 MiB (3%)
Language : English
Default : No
Forced : No

Audio #3
ID : 4
Format : AC-3
Format/Info : Audio Coding 3
Mode extension : CM (complete main)
Format settings, Endianness : Big
Codec ID : A_AC3
Duration : 50mn 41s
Bit rate mode : Constant
Bit rate : 640 Kbps
Channel(s) : 6 channels
Channel positions : Front: L C R, Side: L R, LFE
Sampling rate : 48.0 KHz
Bit depth : 16 bits
Compression mode : Lossy
Stream size : 232 MiB (3%)
Title : Instrumental
Default : No
Forced : No

Menu
00:00:00.000 : :1
00:13:11.249 : :2
00:25:26.775 : :3
00:38:22.342 : :4

























   Похожие торренты   Торрент   Размер 
В этой теме нет новых непрочитанных сообщений. Коралловый риф: Подводный мир Египта / Adventure coral reef: Under the sea of Egypt (2012) BDRemux 1080p от ExKinoRay | P1

101 | 19

6.66 ГБ

В этой теме нет новых непрочитанных сообщений. Тайны планеты Земля. Коралловый риф: Подводный мир Египта /Adventure coral reef: Under the sea of Egypt (2012) DVDRip-AVC от -=HD-NET=-

186 | 38

641.7 МБ

В этой теме нет новых непрочитанных сообщений. Приключение у кораллового рифа: Подводная жизнь Египта / Adventure Coral Reef: Under the Sea of Egypt (2012) BDRip 1080p | 3D-Video

67 | 19

6.72 ГБ

В этой теме нет новых непрочитанных сообщений. Египет 3D / Egypt 3D (2013) BDRip 1080p | 3D-Video | halfOU

35 | 5

5.14 ГБ

В этой теме нет новых непрочитанных сообщений. Эверглейдс: Ламантины Кристальной реки / Adventure Everglades: The Manatees of Crystal River (2012) BDRip 1080p | 3D-Video | halfOU

14 | 5

6.91 ГБ

В этой теме нет новых непрочитанных сообщений. Папуа 3D: Секретный остров каннибалов / Papua 3D (2012) BDRip 1080p | 3D-Video | halfOU | Лицензия

13 | 8

8.24 ГБ

В этой теме нет новых непрочитанных сообщений. Риф / Риф 2: Прилив / The Reef 2: High Tide (2012) BDRip 1080p | 3D-Video | D

112 | 1

6.12 ГБ




Вы не можете начинать темы
Вы не можете отвечать на сообщения
Вы не можете редактировать свои сообщения
Вы не можете удалять свои сообщения
Вы не можете добавлять вложения

Перейти:  
Для Мосгорсуда, Роскомнадзора и рекламодателей: mosgorsud-torrent[собачка]yandex.ru
 Вход
ppkBB3cker v.2 © 2008-2014 @ PPK
[ Time : 0.043s | 15 Queries | GZIP : Off ]

Торрент трекер RUTOR.IN, Не можете зайти на rutor.org? Какой новый адрес рутор? Какое зеркало рутор? Не работает rutor.org и зеркала? Тогда наш торрент специально для вас. Rutor.in неофициальное зеркало rutor. В случае если у Вас заблокирован rutor или вдруг Вы не можете на него зайти, то Вы без труда сможете скачать бесплатно и без рекламы последние новинки кино, игр, сериалов и прочего у нас, на Rutor.in. Не нужно использовать прокси, чтобы зайти на рутор, достаточно воспользоваться нашим ресурсом. Все новые фильмы, игры, сериалы, книги и музыка за 2013 и 2014 годы через торрент бесплатно. Скачивайте фильмы в хорошем качестве, игры для пк, xbox, playstation без регистрации. У нас вы найдете новые Зарубежные сериалы и Русские сериалы 2013, 2014, 2015 годов. Оставайтесь с нами, качайте любимые фильмы, игры, сериалы, книги и музыку.