img image001 image001 image001 image001 image001 image001 image001 image001 image001 image001 image001 image001 image001 image001 image001

Planets Sun Sun Sun
Статистика раздачи
Автор: PriZraK | Размер: 1.98 ГБ | Добавлен: 15 фев 2014
Раздают: 2    Качают: 2
Скачать торрент
Скачать торрент
Описание торрента

СообщениеДобавлено: 15 фев 2014 

Информация о фильме
Название: IMAX: Дельфины
Оригинальное название: IMAX: Dolphins
Год выхода: 2000
Жанр: Документальный, природа, биология, океанография
Режиссер: Грэг МакГилливрей

О фильме:
Окунитесь в мир теплых вод и ярко-белого песка Багамских островов, где дельфины веселятся играючи с людьми и друг с другом. Затем — путешествие к более холодным берегам Аргентины, где они пирующими косяками пытаются найти себе пищу.

Страна: США, MacGillivray Freeman Films, National Wildlife Federation
Продолжительность: 00:41:00
Перевод: Отсутствует
Субтитры: Русские
Дата релиза: 18.08.2013

Файл
Кодек: H.264
Качество: BDRip (720p)
Видео: MPEG-4 AVC, 5413 Кбит/с, 1280x720
Звук: DTS, 6 ch, 1510 Кбит/с

Общее
Уникальный идентификатор : 220033924412208251524156434112631594233 (0xA588FE0CA88902E9A668275C39B8DCF9)
Полное имя : E:IMAX.Dolphins.2000.x264.BDRip.(720p).ExKinoRay.mkv
Формат : Matroska
Размер файла : 1,98 Гбайт
Продолжительность : 41 м.
Общий поток : 6924 Кбит/сек
Название фильма : IMAX.Dolphins.2000.x264.BDRip.(720p).ExKinoRay
Дата кодирования : UTC 2013-08-15 17:31:30
Программа кодирования : mkvmerge v4.0.0 ('The Stars were mine') сборка от Jun 6 2010 16:18:42
Библиотека кодирования : libebml v1.0.0 + libmatroska v1.0.0

Видео
Идентификатор : 1
Формат : AVC
Формат/Информация : Advanced Video Codec
Профиль формата : High@L4.1
Параметр CABAC формата : Да
Параметр ReFrames формата : 8 кадров
Идентификатор кодека : V_MPEG4/ISO/AVC
Продолжительность : 41 м.
Битрейт : 5413 Кбит/сек
Ширина : 1280 пикс.
Высота : 720 пикс.
Соотношение сторон : 16:9
Частота кадров : 23,976 кадр/сек
Цветовое пространство : YUV
Подвыборка цветности : 4:2:0
Битовая глубина : 8 бит
Тип развёртки : Прогрессивная
Бит/(Пиксели*Кадры) : 0.245
Размер потока : 1,51 Гбайт (76%)
Заголовок : Rip by Enigma-Vladislav71
Библиотека кодирования : x264 core 125 r2208 d9d2288
Настройки программы : cabac=1 / ref=8 / deblock=1:-2:-2 / analyse=0x3:0x133 / me=umh / subme=11 / psy=1 / psy_rd=1.00:0.00 / mixed_ref=1 / me_range=48 / chroma_me=1 / trellis=2 / 8x8dct=1 / cqm=0 / deadzone=21,11 / fast_pskip=0 / chroma_qp_offset=-2 / threads=3 / lookahead_threads=1 / sliced_threads=0 / nr=0 / decimate=1 / interlaced=0 / bluray_compat=0 / constrained_intra=0 / bframes=8 / b_pyramid=2 / b_adapt=2 / b_bias=0 / direct=3 / weightb=1 / open_gop=0 / weightp=2 / keyint=240 / keyint_min=23 / scenecut=40 / intra_refresh=0 / rc_lookahead=50 / rc=2pass / mbtree=1 / bitrate=5413 / ratetol=1.0 / qcomp=0.60 / qpmin=10 / qpmax=51 / qpstep=4 / cplxblur=20.0 / qblur=0.5 / ip_ratio=1.40 / aq=1:1.00
Язык : English

Аудио
Идентификатор : 2
Формат : DTS
Формат/Информация : Digital Theater Systems
Идентификатор кодека : A_DTS
Продолжительность : 41 м.
Вид битрейта : Постоянный
Битрейт : 1510 Кбит/сек
Каналы : 6 каналов
Расположение каналов : Front: L C R, Side: L R, LFE
Частота : 48,0 КГц
Битовая глубина : 16 бит
Метод сжатия : С потерями
Размер потока : 443 Мбайт (22%)
Язык : English

Текст
Идентификатор : 3
Формат : UTF-8
Идентификатор кодека : S_TEXT/UTF8
Идентификатор кодека/Информация : UTF-8 Plain Text
Язык : Russian



Релиз от:

Авторы релиза:



   Похожие торренты   Торрент   Размер 
В этой теме нет новых непрочитанных сообщений. IMAX: Дельфины / IMAX: Dolphins (2000) BDRip 1080p от ExKinoRay

1 | 3

3.92 ГБ

В этой теме нет новых непрочитанных сообщений. IMAX: Дельфины / IMAX: Dolphins (2000) BDRip-AVC от ExKinoRay

1 | 2

1.12 ГБ

В этой теме нет новых непрочитанных сообщений. Дельфины / IMAX - Dolphins (2000) BDRip от HQCLUB

2 | 2

744.74 МБ

В этой теме нет новых непрочитанных сообщений. IMAX. Космическая станция 3D / IMAX. Space Station 3D (2002) BDRip-AVC от ExKinoRay

41 | 3

1.28 ГБ

В этой теме нет новых непрочитанных сообщений. IMAX: Рожденные на воле / IMAX: Born to Be Wild (2011) BDRip-AVC от ExKinoRay

0 | 3

846.3 МБ

В этой теме нет новых непрочитанных сообщений. IMAX: Вулканы в морских глубинах / IMAX: Volcanoes Of The Deep Sea (2003) DVDRip (BDRip) от ExKinoRay

2 | 2

699.42 МБ

В этой теме нет новых непрочитанных сообщений. IMAX. Арктика / IMAX. To the Arctic (2012) BDRip-AVC от ExKinoRay

10 | 1

1.1 ГБ




Вы не можете начинать темы
Вы не можете отвечать на сообщения
Вы не можете редактировать свои сообщения
Вы не можете удалять свои сообщения
Вы не можете добавлять вложения

Перейти:  
Для Мосгорсуда, Роскомнадзора и рекламодателей: mosgorsud-torrent[собачка]yandex.ru
 Вход
ppkBB3cker v.2 © 2008-2014 @ PPK
[ Time : 0.023s | 15 Queries | GZIP : Off ]

Торрент трекер RUTOR.IN, Не можете зайти на rutor.org? Какой новый адрес рутор? Какое зеркало рутор? Не работает rutor.org и зеркала? Тогда наш торрент специально для вас. Rutor.in неофициальное зеркало rutor. В случае если у Вас заблокирован rutor или вдруг Вы не можете на него зайти, то Вы без труда сможете скачать бесплатно и без рекламы последние новинки кино, игр, сериалов и прочего у нас, на Rutor.in. Не нужно использовать прокси, чтобы зайти на рутор, достаточно воспользоваться нашим ресурсом. Все новые фильмы, игры, сериалы, книги и музыка за 2013 и 2014 годы через торрент бесплатно. Скачивайте фильмы в хорошем качестве, игры для пк, xbox, playstation без регистрации. У нас вы найдете новые Зарубежные сериалы и Русские сериалы 2013, 2014, 2015 годов. Оставайтесь с нами, качайте любимые фильмы, игры, сериалы, книги и музыку.