img image001 image001 image001 image001 image001 image001 image001 image001 image001 image001 image001 image001 image001 image001 image001

Planets Sun Sun Sun
Статистика раздачи
Автор: PriZraK | Размер: 1.1 ГБ | Добавлен: 15 фев 2014
Раздают: 10    Качают: 1
Скачать торрент
Скачать торрент
Описание торрента

СообщениеДобавлено: 15 фев 2014 

Информация о фильме
Название: IMAX: Арктика
Оригинальное название: IMAX: To the Arctic
Год выхода: 2012
Жанр: Документальный, научно-познавательный, флора, фауна, путешествие
Режиссер: Грег МакГилври
В ролях: Мэрил Стрип

О фильме:
Необыкновенное путешествие на край земли, новый фильм IMAX «Арктика» рассказывает историю любви к жизни и борьбы за выживание. В оригинальной версии картины звучит закадровый голос трехкратной обладательницы премии «Оскар», актрисы Мерил Стрип. Мы отправляемся в Арктику в компании белой медведицы и двух ее малышей. Перемены, пришедшие в арктическую пустыню, заставляют их идти вглубь континента, чтобы найти себе безопасное место для обитания. Увлекательные приключения медвежьей семьи на фоне тающих снегов, древних ледников, огромных водопадов и величественных заснеженных вершин помогут лучше узнать этих удивительных и отважных животных.

Страна: США, IMAX, MacGillivray Freeman Films, Warner Bros
Продолжительность: 00:40:25
Перевод: Профессиональный двухголосый
Дата релиза: 19.08.2013

Файл
Кодек: H.264
Качество: BDRip (AVC)
Видео: MPEG-4 AVC, 3000 Кбит/с, 1024x576
Звук: Русский, английский (AC3, 6 ch, 448 Кбит/с)

Общее
Уникальный идентификатор : 195345073815692982778522801688939322732 (0x92F617BC2BE15423A21D161078DBDD6C)
Полное имя : E:2IMAX. Arktika.2012.x264.BDRip.(AVC).ExKinoRay.mkv
Формат : Matroska
Размер файла : 1,10 Гбайт
Продолжительность : 40 м.
Общий поток : 3898 Кбит/сек
Название фильма : IMAX. Arktika.2012.x264.BDRip.(AVC).ExKinoRay
Дата кодирования : UTC 2013-08-18 15:12:26
Программа кодирования : mkvmerge v4.0.0 ('The Stars were mine') сборка от Jun 6 2010 16:18:42
Библиотека кодирования : libebml v1.0.0 + libmatroska v1.0.0

Видео
Идентификатор : 1
Формат : AVC
Формат/Информация : Advanced Video Codec
Профиль формата : High@L4.1
Параметр CABAC формата : Да
Параметр ReFrames формата : 8 кадров
Идентификатор кодека : V_MPEG4/ISO/AVC
Продолжительность : 40 м.
Битрейт : 3000 Кбит/сек
Ширина : 1024 пикс.
Высота : 576 пикс.
Соотношение сторон : 16:9
Частота кадров : 23,976 кадр/сек
Цветовое пространство : YUV
Подвыборка цветности : 4:2:0
Битовая глубина : 8 бит
Тип развёртки : Прогрессивная
Бит/(Пиксели*Кадры) : 0.212
Размер потока : 846 Мбайт (75%)
Заголовок : Rip by Enigma-Vladislav71
Библиотека кодирования : x264 core 129 r2245 bc13772
Настройки программы : cabac=1 / ref=8 / deblock=1:-2:-2 / analyse=0x3:0x133 / me=umh / subme=11 / psy=1 / psy_rd=1.00:0.00 / mixed_ref=1 / me_range=48 / chroma_me=1 / trellis=2 / 8x8dct=1 / cqm=0 / deadzone=21,11 / fast_pskip=0 / chroma_qp_offset=-2 / threads=3 / lookahead_threads=1 / sliced_threads=0 / nr=0 / decimate=0 / interlaced=0 / bluray_compat=0 / constrained_intra=0 / bframes=8 / b_pyramid=2 / b_adapt=2 / b_bias=0 / direct=3 / weightb=1 / open_gop=0 / weightp=2 / keyint=240 / keyint_min=23 / scenecut=40 / intra_refresh=0 / rc_lookahead=40 / rc=2pass / mbtree=1 / bitrate=3000 / ratetol=1.0 / qcomp=0.60 / qpmin=10 / qpmax=51 / qpstep=4 / cplxblur=20.0 / qblur=0.5 / ip_ratio=1.40 / aq=2:1.00
Язык : English

Аудио #1
Идентификатор : 2
Формат : AC-3
Формат/Информация : Audio Coding 3
Расширение режима : CM (complete main)
Идентификатор кодека : A_AC3
Продолжительность : 40 м.
Вид битрейта : Постоянный
Битрейт : 448 Кбит/сек
Каналы : 6 каналов
Расположение каналов : Front: L C R, Side: L R, LFE
Частота : 48,0 КГц
Битовая глубина : 16 бит
Метод сжатия : С потерями
Размер потока : 130 Мбайт (11%)
Язык : Russian

Аудио #2
Идентификатор : 3
Формат : AC-3
Формат/Информация : Audio Coding 3
Расширение режима : CM (complete main)
Идентификатор кодека : A_AC3
Продолжительность : 40 м.
Вид битрейта : Постоянный
Битрейт : 448 Кбит/сек
Каналы : 6 каналов
Расположение каналов : Front: L C R, Side: L R, LFE
Частота : 48,0 КГц
Битовая глубина : 16 бит
Метод сжатия : С потерями
Размер потока : 130 Мбайт (11%)
Язык : English



Релиз от:

Авторы релиза:



   Похожие торренты   Торрент   Размер 
В этой теме нет новых непрочитанных сообщений. IMAX. Арктика 3D / IMAX. To the Arctic 3D (2012) BDRip 1080p | 3D-Video от HDClub

102 | 9

4.86 ГБ

В этой теме нет новых непрочитанных сообщений. IMAX. Арктика 3D / IMAX. To the Arctic 3D (2012) BDRip 1080p от HDClub

12 | 3

5.31 ГБ

В этой теме нет новых непрочитанных сообщений. IMAX. Арктика 3D / IMAX. To the Arctic 3D (2012) BDRip 720p от HDClub

21 | 2

2.83 ГБ

В этой теме нет новых непрочитанных сообщений. IMAX. Арктика 3D / IMAX. To the Arctic 3D (2012) HDRip от DeathN2 | P2

29 | 4

983.49 МБ

В этой теме нет новых непрочитанных сообщений. IMAX. Арктика 3D / IMAX. To the Arctic 3D (2012) Blu-Ray 1080p от HDClub | P2

7 | 4

22.99 ГБ

В этой теме нет новых непрочитанных сообщений. IMAX: Рожденные на воле / IMAX: Born to Be Wild (2011) BDRip-AVC от ExKinoRay

0 | 3

846.3 МБ

В этой теме нет новых непрочитанных сообщений. IMAX. Космическая станция 3D / IMAX. Space Station 3D (2002) BDRip-AVC от ExKinoRay

41 | 3

1.28 ГБ




Вы не можете начинать темы
Вы не можете отвечать на сообщения
Вы не можете редактировать свои сообщения
Вы не можете удалять свои сообщения
Вы не можете добавлять вложения

Перейти:  
Для Мосгорсуда, Роскомнадзора и рекламодателей: mosgorsud-torrent[собачка]yandex.ru
 Вход
ppkBB3cker v.2 © 2008-2014 @ PPK
[ Time : 2.622s | 16 Queries | GZIP : Off ]

Торрент трекер RUTOR.IN, Не можете зайти на rutor.org? Какой новый адрес рутор? Какое зеркало рутор? Не работает rutor.org и зеркала? Тогда наш торрент специально для вас. Rutor.in неофициальное зеркало rutor. В случае если у Вас заблокирован rutor или вдруг Вы не можете на него зайти, то Вы без труда сможете скачать бесплатно и без рекламы последние новинки кино, игр, сериалов и прочего у нас, на Rutor.in. Не нужно использовать прокси, чтобы зайти на рутор, достаточно воспользоваться нашим ресурсом. Все новые фильмы, игры, сериалы, книги и музыка за 2013 и 2014 годы через торрент бесплатно. Скачивайте фильмы в хорошем качестве, игры для пк, xbox, playstation без регистрации. У нас вы найдете новые Зарубежные сериалы и Русские сериалы 2013, 2014, 2015 годов. Оставайтесь с нами, качайте любимые фильмы, игры, сериалы, книги и музыку.
cron