img image001 image001 image001 image001 image001 image001 image001 image001 image001 image001 image001 image001 image001 image001 image001

Planets Sun Sun Sun
Статистика раздачи
Автор: PriZraK | Размер: 745.22 МБ | Добавлен: 15 фев 2014
Раздают: 0    Качают: 1
Скачать торрент
Скачать торрент
Описание торрента

СообщениеДобавлено: 15 фев 2014 

Год выпуска: 2009
Страна: Германия, Польша, Россия
Студия: Komplett-Media GmbH
Жанр: документальный
Продолжительность: 01:32:04

Перевод: Профессиональный (дикторский закадровый)
Субтитры: нет
Оригинальная аудиодорожка: нет

Описание:
«Солнечный остров», как назвал его римский поэт, может предложить гостям гораздо больше, чем дивный климат и сказочные пейзажи. На протяжении столетий Сицилия переходила из рук в руки, ее города не раз бывали уничтожены и разграблены. Но каждый из правителей оставил здесь что-то ценное из своих традиций и культурного наследия. Катания — прекрасный барочный город, построенный с нуля после землетрясения, которое разрушило его в конце XVII века. Камня на камне не осталось и от Ното, и от Модикино и они стали еще более великолепны, чем были до катаклизма. Очередной нашей целью станут Сиракузы, один из прекраснейших городов древнего мира. Восхитительные памятники античной архитектуры мы откроем также в Агридженто, Селинунте и Сегесте. На побережье нас очарует сказочный залив Эраклеа Миноа, городки Цефалу и Таормина. Палермо, столица Сицилии, с трех сторон окружен горами и мягко спускается к одноименному заливу. Это шумный и людный город, но он обладает также необыкновенной атмосферой и прекрасными памятниками, которые позволяют забыть о прочих недостатках. В небольшой горной деревушке перед нами откроются виды из знаменитой киносаги «Крестный отец» с Марлоном Брандо в главной роли. И это еще не конец приключений: нас ждет таинственное базальтовое ущелье Алькантара и наиболее волнующий момент — подъем на Этну, самый известный вулкан в мире...





Исходник: DVD5 R5
Тип релиза: DVDRip
Контейнер: AVI

Видео: 608x464 (4:3), 25 fps, XviD ~ 994 kbps avg, 0.141 bit/pixel
Аудио: 48 kHz, MP3 2.0, 128.00 kbps
Общее
Полное имя : Siciliya.Tainstvenniy.ostrov.2009.DVDRip-745_[Youtracker]_by_AVP Studio.avi
Формат : AVI
Формат/Информация : Audio Video Interleave
Размер файла : 745 Мбайт
Продолжительность : 1 ч. 32 м.
Общий поток : 1132 Кбит/сек
Программа кодирования : VirtualDubModRus 1.5.10.2 (build 2542/release)
Библиотека кодирования : VirtualDubMod build 2542/release

Видео
Идентификатор : 0
Формат : MPEG-4 Visual
Профиль формата : Advanced Simple@L5
Параметр BVOP формата : 1
Параметр QPel формата : Нет
Параметр GMC формата : Без точки перехода
Параметр матрицы формата : Выборочная
Идентификатор кодека : XVID
Идентификатор кодека/Подсказка : XviD
Продолжительность : 1 ч. 32 м.
Битрейт : 994 Кбит/сек
Ширина : 608 пикселей
Высота : 464 пикселя
Соотношение сторон : 4:3
Частота кадров : 25,000 кадров/сек
Цветовое пространство : YUV
Субдискретизация насыщенности : 4:2:0
Битовая глубина : 8 бит
Тип развёртки : Прогрессивная
Метод сжатия : С потерями
Бит/(Пиксели*Кадры) : 0.141
Размер потока : 655 Мбайт (88%)
Библиотека кодирования : XviD 65

Аудио
Идентификатор : 1
Формат : MPEG Audio
Версия формата : Version 1
Профиль формата : Layer 3
Идентификатор кодека : 55
Идентификатор кодека/Подсказка : MP3
Продолжительность : 1 ч. 32 м.
Вид битрейта : Постоянный
Битрейт : 128 Кбит/сек
Каналы : 2 канала
Частота : 48,0 КГц
Метод сжатия : С потерями
Размер потока : 84,3 Мбайт (11%)
Выравнивание : Соединение по промежуткам
Продолжительность промежутка : 40 мс. (1,00 видеокадр)
Время предзагрузки промежутка : 504 мс.
Библиотека кодирования : L3.99r
Настройки программы : -m s -V 4 -q 2 -lowpass 17 -b 128





   Похожие торренты   Торрент   Размер 
В этой теме нет новых непрочитанных сообщений. Путешествие по Европе. Выпуск №27: Сицилия (2009) DVDRip от New-Team

0 | 1

1.46 ГБ

В этой теме нет новых непрочитанных сообщений. Путешествие по Европе. Выпуск №27: Сицилия (2009) DVDRip-AVC от New-Team

0 | 1

1.46 ГБ

В этой теме нет новых непрочитанных сообщений. Путешествие по Европе. Выпуск №27: Сицилия (2009) DVD5 R5 от New-Team

0 | 1

4 ГБ

В этой теме нет новых непрочитанных сообщений. Путешествие по Европе. Выпуск №29: Шотландия (2009) DVDRip от New-Team

1 | 2

1.09 ГБ

В этой теме нет новых непрочитанных сообщений. Путешествие по Европе. Выпуск №29: Шотландия (2009) DVDRip от New-Team

2 | 3

743.17 МБ

В этой теме нет новых непрочитанных сообщений. Путешествие по Европе. Выпуск №33: Андалузия (2009) DVDRip-AVC от New-Team

1 | 3

1.46 ГБ

В этой теме нет новых непрочитанных сообщений. Путешествие по Европе. Выпуск №29: Шотландия (2009) DVDRip-AVC от New-Team

1 | 2

1.09 ГБ




Вы не можете начинать темы
Вы не можете отвечать на сообщения
Вы не можете редактировать свои сообщения
Вы не можете удалять свои сообщения
Вы не можете добавлять вложения

Перейти:  
Для Мосгорсуда, Роскомнадзора и рекламодателей: mosgorsud-torrent[собачка]yandex.ru
 Вход
ppkBB3cker v.2 © 2008-2014 @ PPK
[ Time : 0.033s | 15 Queries | GZIP : Off ]

Торрент трекер RUTOR.IN, Не можете зайти на rutor.org? Какой новый адрес рутор? Какое зеркало рутор? Не работает rutor.org и зеркала? Тогда наш торрент специально для вас. Rutor.in неофициальное зеркало rutor. В случае если у Вас заблокирован rutor или вдруг Вы не можете на него зайти, то Вы без труда сможете скачать бесплатно и без рекламы последние новинки кино, игр, сериалов и прочего у нас, на Rutor.in. Не нужно использовать прокси, чтобы зайти на рутор, достаточно воспользоваться нашим ресурсом. Все новые фильмы, игры, сериалы, книги и музыка за 2013 и 2014 годы через торрент бесплатно. Скачивайте фильмы в хорошем качестве, игры для пк, xbox, playstation без регистрации. У нас вы найдете новые Зарубежные сериалы и Русские сериалы 2013, 2014, 2015 годов. Оставайтесь с нами, качайте любимые фильмы, игры, сериалы, книги и музыку.