img image001 image001 image001 image001 image001 image001 image001 image001 image001 image001 image001 image001 image001 image001 image001

Planets Sun Sun Sun
Статистика раздачи
Автор: PriZraK | Размер: 55.11 ГБ | Добавлен: 15 фев 2014
Раздают: 6    Качают: 6
Скачать торрент
Скачать торрент
Описание торрента

СообщениеДобавлено: 15 фев 2014 

Информация о фильме
Название: BBC: Африка
Оригинальное название: BBC: Africa
Год выхода: 2013
Жанр: Документальный, дикая природа, зоология, научно-познавательный
Режиссер: Катрина Бартлам, Фелисити Эгертон
В ролях: Дэвид Аттенборо

О фильме:
Это новое представление ландшафтов и живых созданий дикой природы поведает в невиданном доселе ключе о горах и саваннах, вулканах и озерах, ледниках и джунглях Африки, населенных удивительными животными, пресмыкающимися, рыбами и насекомыми с необыкновенным поведением в естественной среде обитания, по-прежнему полной тайн и загадок.

Страна: Великобритания
Студия: British Broadcasting Corporation (BBC)
Продолжительность: 6 x ~ 00:57:00
Перевод: Авторский одноголосый закадровый (В.Курдов)

Файл
Кодек: MPEG-4 AVC
Качество: BDRip 1080p
Видео: ~ 21 Мбит/с, 1920x1080, 25.000 кадр/с
Звук:
Аудио#1: Russian: 48 kHz, DTS, 3/2 (L,C,R,l,r) + LFE ch, ~1536 kbps avg |Одноголосый закадровый, В.Курдов|
Аудио#2: English: 48 kHz, DTS, 3/2 (L,C,R,l,r) + LFE ch, ~1536 kbps avg
Субтитры: Russian, English

1: Kalahari / Калахари
2: Savannah / Cаванна
3: Congo / Конго[
4: Cape / Мыс
5: Sahara / Сахара
6: The Future / Будущее

Релиз от DeathN2

Перевод Елены Акуловой, редактор Александр Кривцов, озвучивание Владимир Курдов

Перевод и озвучивание выполнены в рамках сервиса "Озвучивание". Спонсоры: tambov68, LibrarianA, gelom, jezburg68, Turko, Cheetah, DeTorquemada, RomanTar, Baron0580, habal_garmin, Studio, sergey324, Andrey2012, qwert54326.
BBC.Africa.E01.Kalahari.2013.1080p.BluRay.DTS.x264.D-Z0N3
x264 [info]: frame I:509 Avg QP:17.55 size:286622
x264 [info]: frame P:18519 Avg QP:19.67 size:168431
x264 [info]: frame B:67821 Avg QP:20.92 size: 99063

BBC.Africa.E02.Savannah.2013.1080p.BluRay.DTS.x264.D-Z0N3
x264 [info]: frame I:584 Avg QP:17.13 size:263669
x264 [info]: frame P:18467 Avg QP:19.35 size:142567
x264 [info]: frame B:67898 Avg QP:20.72 size: 77401

BBC.Africa.E03.Congo.2013.1080p.BluRay.DTS.x264.D-Z0N3
x264 [info]: frame I:663 Avg QP:16.85 size:285897
x264 [info]: frame P:18694 Avg QP:18.91 size:155467
x264 [info]: frame B:66692 Avg QP:20.09 size: 89038

BBC.Africa.E04.Cape.2013.1080p.BluRay.DTS.x264.D-Z0N3
x264 [info]: frame I:482 Avg QP:18.02 size:256911
x264 [info]: frame P:20452 Avg QP:20.20 size:142540
x264 [info]: frame B:64690 Avg QP:21.14 size: 88193

BBC.Africa.E05.Sahara.2013.1080p.BluRay.DTS.x264.D-Z0N3
x264 [info]: frame I:593 Avg QP:15.74 size:259684
x264 [info]: frame P:18595 Avg QP:17.61 size:122683
x264 [info]: frame B:68561 Avg QP:18.96 size: 60040

BBC.Africa.E06.The Future.2013.1080p.BluRay.DTS.x264.D-Z0N3
x264 [info]: frame I:599 Avg QP:17.26 size:287612
x264 [info]: frame P:19810 Avg QP:19.39 size:156826
x264 [info]: frame B:67190 Avg QP:20.94 size: 84396


Общее
Уникальный идентификатор : 193570015284328353715817790868981142637 (0x91A03A97B185A83890B6AA284D19D46D)
Полное имя : Africa.2013.x264.BDRip.1080p.DeathN2BBC.Africa.E01.Kalahari.2013.BDRip.1080p.mkv
Формат : Matroska
Версия формата : Version 4 / Version 2
Размер файла : 10,5 Гбайт
Продолжительность : 57 м.
Общий поток : 26,0 Мбит/сек
Название фильма : Africa: Ep. 1 - Kalahari (2013) Created by DeathN2 for Кинозал.ТВ
Дата кодирования : UTC 2013-03-14 02:34:37
Программа кодирования : mkvmerge v6.1.0 ('Old Devil') built on Mar 2 2013 14:32:37
Библиотека кодирования : libebml v1.3.0 + libmatroska v1.4.0

Видео
Идентификатор : 1
Формат : AVC
Формат/Информация : Advanced Video Codec
Профиль формата : High@L4.1
Параметр CABAC формата : Да
Параметр ReFrames формата : 4 кадра
Идентификатор кодека : V_MPEG4/ISO/AVC
Продолжительность : 57 м.
Битрейт : 23,0 Мбит/сек
Ширина : 1920 пикселей
Высота : 1080 пикселей
Соотношение сторон : 16:9
Режим частоты кадров : Постоянный
Частота кадров : 25,000 кадров/сек
Цветовое пространство : YUV
Субдискретизация насыщенности : 4:2:0
Битовая глубина : 8 бит
Тип развёртки : Прогрессивная
Бит/(Пиксели*Кадры) : 0.444
Размер потока : 9,09 Гбайт (86%)
Заголовок : BBC.Africa.E01.Kalahari.2013.1080p.BluRay.DTS.x264.D-Z0N3
Библиотека кодирования : x264 core 129 r2245 bc13772
Настройки программы : cabac=1 / ref=4 / deblock=1:-3:-3 / analyse=0x3:0x113 / me=umh / subme=11 / psy=1 / psy_rd=1.00:0.00 / mixed_ref=1 / me_range=48 / chroma_me=1 / trellis=2 / 8x8dct=1 / cqm=0 / deadzone=21,11 / fast_pskip=0 / chroma_qp_offset=-2 / threads=6 / lookahead_threads=1 / sliced_threads=0 / nr=0 / decimate=0 / interlaced=0 / bluray_compat=0 / constrained_intra=0 / bframes=8 / b_pyramid=2 / b_adapt=2 / b_bias=0 / direct=3 / weightb=1 / open_gop=0 / weightp=2 / keyint=250 / keyint_min=25 / scenecut=40 / intra_refresh=0 / rc_lookahead=250 / rc=2pass / mbtree=1 / bitrate=23000 / ratetol=1.0 / qcomp=0.70 / qpmin=0 / qpmax=69 / qpstep=4 / cplxblur=20.0 / qblur=0.5 / vbv_maxrate=38000 / vbv_bufsize=30000 / nal_hrd=none / ip_ratio=1.40 / aq=1:1.10
Язык : English
Default : Да
Forced : Нет

Аудио #1
Идентификатор : 2
Формат : DTS
Формат/Информация : Digital Theater Systems
Режим : 16
Параметр Endianness формата : Big
Идентификатор кодека : A_DTS
Продолжительность : 57 м.
Вид битрейта : Постоянный
Битрейт : 1509 Кбит/сек
Каналы : 6 каналов
Расположение каналов : Front: L C R, Side: L R, LFE
Частота : 48,0 КГц
Битовая глубина : 24 бит
Метод сжатия : С потерями
Размер потока : 625 Мбайт (6%)
Заголовок : Russian DTS 5.1 - V.Kurdov
Язык : Russian
Default : Да
Forced : Нет

Аудио #2
Идентификатор : 3
Формат : DTS
Формат/Информация : Digital Theater Systems
Режим : 16
Параметр Endianness формата : Big
Идентификатор кодека : A_DTS
Продолжительность : 57 м.
Вид битрейта : Постоянный
Битрейт : 1509 Кбит/сек
Каналы : 6 каналов
Расположение каналов : Front: L C R, Side: L R, LFE
Частота : 48,0 КГц
Битовая глубина : 24 бит
Метод сжатия : С потерями
Размер потока : 625 Мбайт (6%)
Заголовок : English DTS 5.1 - D.Attenboro
Язык : English
Default : Нет
Forced : Нет

Текст #1
Идентификатор : 4
Формат : UTF-8
Идентификатор кодека : S_TEXT/UTF8
Идентификатор кодека/Информация : UTF-8 Plain Text
Заголовок : Russian Subtitles
Язык : Russian
Default : Нет
Forced : Нет

Текст #2
Идентификатор : 5
Формат : UTF-8
Идентификатор кодека : S_TEXT/UTF8
Идентификатор кодека/Информация : UTF-8 Plain Text
Заголовок : English Subtitles
Язык : English
Default : Нет
Forced : Нет

Меню
00:00:00.000 : en:00:00:00.000
00:14:03.680 : en:00:14:03.680
00:24:45.360 : en:00:24:45.360
00:34:31.800 : en:00:34:31.800
00:48:18.800 : en:00:48:18.800










Релиз от:



   Похожие торренты   Торрент   Размер 
В этой теме нет новых непрочитанных сообщений. Африка / BBC: Africa [01-05 из 06] (2013) BDRip 1080p от DeathN2

6 | 2

45.54 ГБ

В этой теме нет новых непрочитанных сообщений. Африка / BBC: Africa [01-05 из 06] (2013) BDRip 720p от DeathN2

37 | 12

13.76 ГБ

В этой теме нет новых непрочитанных сообщений. Африка / BBC: Africa [01-06 из 06] (2013) BDRip 720p от DeathN2

2 | 3

16.52 ГБ

В этой теме нет новых непрочитанных сообщений. Африка / BBC: Africa [01-06 из 06] (2013) HDRip от DeathN2

8 | 2

7.04 ГБ

В этой теме нет новых непрочитанных сообщений. Африка / BBC: Africa [01-05 из 06] (2013) HDRip от DeathN2

15 | 6

5.86 ГБ

В этой теме нет новых непрочитанных сообщений. Африка / BBC: Africa [01-06 из 06] (2013) BDRip 1080p от Freeisland

6 | 2

26.25 ГБ

В этой теме нет новых непрочитанных сообщений. Африка / BBC: Africa [01-05 из 06] (2013) BDRip 1080p от Freeisland

8 | 2

21.88 ГБ




Вы не можете начинать темы
Вы не можете отвечать на сообщения
Вы не можете редактировать свои сообщения
Вы не можете удалять свои сообщения
Вы не можете добавлять вложения

Перейти:  
Для Мосгорсуда, Роскомнадзора и рекламодателей: mosgorsud-torrent[собачка]yandex.ru
 Вход
ppkBB3cker v.2 © 2008-2014 @ PPK
[ Time : 0.038s | 16 Queries | GZIP : Off ]

Торрент трекер RUTOR.IN, Не можете зайти на rutor.org? Какой новый адрес рутор? Какое зеркало рутор? Не работает rutor.org и зеркала? Тогда наш торрент специально для вас. Rutor.in неофициальное зеркало rutor. В случае если у Вас заблокирован rutor или вдруг Вы не можете на него зайти, то Вы без труда сможете скачать бесплатно и без рекламы последние новинки кино, игр, сериалов и прочего у нас, на Rutor.in. Не нужно использовать прокси, чтобы зайти на рутор, достаточно воспользоваться нашим ресурсом. Все новые фильмы, игры, сериалы, книги и музыка за 2013 и 2014 годы через торрент бесплатно. Скачивайте фильмы в хорошем качестве, игры для пк, xbox, playstation без регистрации. У нас вы найдете новые Зарубежные сериалы и Русские сериалы 2013, 2014, 2015 годов. Оставайтесь с нами, качайте любимые фильмы, игры, сериалы, книги и музыку.
cron