img image001 image001 image001 image001 image001 image001 image001 image001 image001 image001 image001 image001 image001 image001 image001

Planets Sun Sun Sun
Статистика раздачи
Автор: PriZraK | Размер: 701.53 МБ | Добавлен: 15 фев 2014
Раздают: 4    Качают: 3
Скачать торрент
Скачать торрент
Описание торрента

СообщениеДобавлено: 15 фев 2014 

Превосходство бегемота
The Hippo Supremacy




Год выпуска: 2012
Страна: США
Жанр: Документальный
Продолжительность: 00:44:59
Перевод: Профессиональный (дублированный) | Денис Некрасов / АРК·ТВ
Русские субтитры: нет


Режиссер: Каролин Бретт / Caroline Brett

Описание: Бегемоты реки Луангвы в Замбии - одни из самых тяжелых животных на планете, что осложняет жизнь их детенышей.
Zambia's Luangwa river hippos are living the easy life, or so it seems. They are one of the heaviest creatures on Earth and life fluctuates between the serenity of sunbathing to the terrible brutality of dominance and aggression. This struggle puts a young hippo in more danger of being trampled by herd members than being hunted by the neighboring crocodiles. Crocodiles and hippos maintain a symbiotic truce, while male hippo clashes can have tragic consequences. This reality is captured as a mother risks her safety to protect her struggling baby in The Hippo Supremacy.


Автор рипа: Leo.pard
Исходник: HDTV 1080i Спасибо LeXa 84!


Kачество: HDTVRip
Формат: AVI
Видео: XviD, 720x400 (16:9), 1978 Kbps, 25 fps
Аудио: MP2, 192 Kbps, 48 KHz, 2 channels

Сэмпл: http://multi-up.com/896740

General
Complete name : D:Prevoshodstvo.begemota.2012.HDTVRip.avi
Format : AVI
Format/Info : Audio Video Interleave
File size : 702 MiB
Duration : 44mn 59s
Overall bit rate : 2 180 Kbps
Writing application : VirtualDubMod 1.5.10.3 | www.virtualdub-fr.org || (build 2550/release)
Writing library : VirtualDubMod build 2550/release

Video
ID : 0
Format : MPEG-4 Visual
Format profile : Advanced Simple@L5
Format settings, BVOP : 1
Format settings, QPel : No
Format settings, GMC : No warppoints
Format settings, Matrix : Custom
Codec ID : XVID
Codec ID/Hint : XviD
Duration : 44mn 59s
Bit rate : 1 978 Kbps
Width : 720 pixels
Height : 400 pixels
Display aspect ratio : 16:9
Frame rate : 25.000 fps
Color space : YUV
Chroma subsampling : 4:2:0
Bit depth : 8 bits
Scan type : Progressive
Compression mode : Lossy
Bits/(Pixel*Frame) : 0.275
Stream size : 637 MiB (91%)
Writing library : XviD 73

Audio
ID : 1
Format : MPEG Audio
Format version : Version 1
Format profile : Layer 2
Codec ID : 50
Duration : 44mn 59s
Bit rate mode : Constant
Bit rate : 192 Kbps
Channel(s) : 2 channels
Sampling rate : 48.0 KHz
Compression mode : Lossy
Stream size : 61.8 MiB (9%)
Alignment : Aligned on interleaves
Interleave, duration : 40 ms (1.00 video frame)
Interleave, preload duration : 504 ms







   Похожие торренты   Торрент   Размер 
В этой теме нет новых непрочитанных сообщений. Nat Geo Wild: Дикая сторона кошек / Wild Side of Cats (2012) HDTVRip-AVC от Leo.pard | P1

4 | 2

700.55 МБ

В этой теме нет новых непрочитанных сообщений. Nat Geo Wild: Дикая сторона кошек / Wild Side of Cats (2012) HDTVRip от Leo.pard | P1

2 | 2

700.43 МБ

В этой теме нет новых непрочитанных сообщений. Превосходство / Supremacy (2014) BDRip-AVC от HELLYWOOD | A

164 | 24

2.18 ГБ

В этой теме нет новых непрочитанных сообщений. Превосходство / Supremacy (2014) HDRip | Яроцкий

700 | 35

1.37 ГБ

В этой теме нет новых непрочитанных сообщений. Превосходство / Supremacy (2014) BDRemux 1080p от NovaLan

31 | 25

35.54 ГБ

В этой теме нет новых непрочитанных сообщений. Превосходство Борна / The Bourne Supremacy (2004) DVD5

20 | 7

4.37 ГБ

В этой теме нет новых непрочитанных сообщений. Превосходство Борна / The Bourne Supremacy (2004) HDRip

13 | 5

1.6 ГБ




Вы не можете начинать темы
Вы не можете отвечать на сообщения
Вы не можете редактировать свои сообщения
Вы не можете удалять свои сообщения
Вы не можете добавлять вложения

Перейти:  
Для Мосгорсуда, Роскомнадзора и рекламодателей: mosgorsud-torrent[собачка]yandex.ru
 Вход
ppkBB3cker v.2 © 2008-2014 @ PPK
[ Time : 0.026s | 15 Queries | GZIP : Off ]

Торрент трекер RUTOR.IN, Не можете зайти на rutor.org? Какой новый адрес рутор? Какое зеркало рутор? Не работает rutor.org и зеркала? Тогда наш торрент специально для вас. Rutor.in неофициальное зеркало rutor. В случае если у Вас заблокирован rutor или вдруг Вы не можете на него зайти, то Вы без труда сможете скачать бесплатно и без рекламы последние новинки кино, игр, сериалов и прочего у нас, на Rutor.in. Не нужно использовать прокси, чтобы зайти на рутор, достаточно воспользоваться нашим ресурсом. Все новые фильмы, игры, сериалы, книги и музыка за 2013 и 2014 годы через торрент бесплатно. Скачивайте фильмы в хорошем качестве, игры для пк, xbox, playstation без регистрации. У нас вы найдете новые Зарубежные сериалы и Русские сериалы 2013, 2014, 2015 годов. Оставайтесь с нами, качайте любимые фильмы, игры, сериалы, книги и музыку.