img image001 image001 image001 image001 image001 image001 image001 image001 image001 image001 image001 image001 image001 image001 image001

Planets Sun Sun Sun
Статистика раздачи
Автор: PriZraK | Размер: 745.28 МБ | Добавлен: 15 фев 2014
Раздают: 0    Качают: 1
Скачать торрент
Скачать торрент
Описание торрента

СообщениеДобавлено: 15 фев 2014 

Прованс. Живописный край с ароматом лаванды



Год выпуска: 2009
Страна: Германия, Польша, Россия
Студия: Komplett-Media GmbH
Жанр: документальный
Продолжительность: 01:26:17

Перевод: Профессиональный (дикторский закадровый)
Субтитры: нет
Оригинальная аудиодорожка: нет

Описание:
Прованс — это один из красивейших уголков Франции. В древние времена здесь жили греки и римляне, в неспокойные века Средневековья Прованс неоднократно переходил из рук в руки. Свидетельством бурной истории служат многочисленные укрепленные города. Прованс был краем рыцарей и трубадуров, пап и самозванцев, претендовавших на этот титул. С XIX века он стал излюбленной целью художников и аристократов. Его необычайно красочные пейзажи вдохновляли импрессионистов: Гогена, Сезанна и Ван Гога, — создавших здесь свои величайшие произведения. Источником мотивов и цветов служили для них красные скалы Руссильона, подсолнухи и поля лаванды. Наше кинопутешествие мы начнем с посещения самого безлюдного горного региона Прованса — От-Прованс. Затем мы посетим исключительно живописные регионы Ле-Бо-де-Прованс, Экс-ан-Прованс, Са-лон-де-Прованс. Мы увидим известный портовый город Марсель — миллионную метрополию на побережье Средиземного моря, старейший из великих французских городов восхитительный плавильный сосуд культур и традиций, смешавшихся друг с другом на протяжении столетий. Находясь на побережье, мы познакомимся с суровой природой Прованса: увидим дикий скалистый край каланков и живописную болотистую дельту Роны — Камарг, где проживают сотни видов водных птиц.





Исходник: DVD5 R5
Тип релиза: DVDRip
Контейнер: AVI

Видео: 640x480 (4:3), 25 fps, XviD ~ 1070 kbps avg, 0.139 bit/pixel
Аудио: 48 kHz, MP3 2.0, 128.00 kbps
Общее
Полное имя : Provans.Zhivopisnyi.krai.s.aromatom.lavandy.2009.DVDRip-745_[Youtracker]_by_AVP Studio.avi
Формат : AVI
Формат/Информация : Audio Video Interleave
Размер файла : 745 Мбайт
Продолжительность : 1 ч. 26 м.
Общий поток : 1207 Кбит/сек
Программа кодирования : VirtualDubModRus 1.5.10.2 (build 2542/release)
Библиотека кодирования : VirtualDubMod build 2542/release

Видео
Идентификатор : 0
Формат : MPEG-4 Visual
Профиль формата : Advanced Simple@L5
Параметр BVOP формата : 1
Параметр QPel формата : Нет
Параметр GMC формата : Без точки перехода
Параметр матрицы формата : Выборочная
Идентификатор кодека : XVID
Идентификатор кодека/Подсказка : XviD
Продолжительность : 1 ч. 26 м.
Битрейт : 1070 Кбит/сек
Ширина : 640 пикселей
Высота : 480 пикселей
Соотношение сторон : 4:3
Частота кадров : 25,000 кадров/сек
Цветовое пространство : YUV
Субдискретизация насыщенности : 4:2:0
Битовая глубина : 8 бит
Тип развёртки : Прогрессивная
Метод сжатия : С потерями
Бит/(Пиксели*Кадры) : 0.139
Размер потока : 660 Мбайт (89%)
Библиотека кодирования : XviD 65

Аудио
Идентификатор : 1
Формат : MPEG Audio
Версия формата : Version 1
Профиль формата : Layer 3
Идентификатор кодека : 55
Идентификатор кодека/Подсказка : MP3
Продолжительность : 1 ч. 26 м.
Вид битрейта : Постоянный
Битрейт : 128 Кбит/сек
Каналы : 2 канала
Частота : 48,0 КГц
Метод сжатия : С потерями
Размер потока : 79,0 Мбайт (11%)
Выравнивание : Соединение по промежуткам
Продолжительность промежутка : 40 мс. (1,00 видеокадр)
Время предзагрузки промежутка : 504 мс.
Библиотека кодирования : L3.99r
Настройки программы : -m s -V 4 -q 2 -lowpass 17 -b 128





   Похожие торренты   Торрент   Размер 
В этой теме нет новых непрочитанных сообщений. Путешествие по Европе. Выпуск №25: Прованс (2009) DVDRip-AVC от New-Team

4 | 1

1.46 ГБ

В этой теме нет новых непрочитанных сообщений. Путешествие по Европе. Выпуск №25: Прованс (2009) DVDRip от New-Team

0 | 1

1.46 ГБ

В этой теме нет новых непрочитанных сообщений. Путешествие по Европе. Выпуск №25: Прованс (2009) DVD5 R5 от New-Team

0 | 1

4.01 ГБ

В этой теме нет новых непрочитанных сообщений. Путешествие по Европе. Выпуск №29: Шотландия (2009) DVDRip-AVC от New-Team

1 | 2

1.09 ГБ

В этой теме нет новых непрочитанных сообщений. Путешествие по Европе. Выпуск №29: Шотландия (2009) DVDRip от New-Team

2 | 3

743.17 МБ

В этой теме нет новых непрочитанных сообщений. Путешествие по Европе. Выпуск №50: Киклады (2009) DVDRip от New-Team

0 | 2

745.63 МБ

В этой теме нет новых непрочитанных сообщений. Путешествие по Европе. Выпуск №50: Киклады (2009) DVDRip от New-Team

15 | 4

1.46 ГБ




Вы не можете начинать темы
Вы не можете отвечать на сообщения
Вы не можете редактировать свои сообщения
Вы не можете удалять свои сообщения
Вы не можете добавлять вложения

Перейти:  
Для Мосгорсуда, Роскомнадзора и рекламодателей: mosgorsud-torrent[собачка]yandex.ru
 Вход
ppkBB3cker v.2 © 2008-2014 @ PPK
[ Time : 0.047s | 15 Queries | GZIP : Off ]

Торрент трекер RUTOR.IN, Не можете зайти на rutor.org? Какой новый адрес рутор? Какое зеркало рутор? Не работает rutor.org и зеркала? Тогда наш торрент специально для вас. Rutor.in неофициальное зеркало rutor. В случае если у Вас заблокирован rutor или вдруг Вы не можете на него зайти, то Вы без труда сможете скачать бесплатно и без рекламы последние новинки кино, игр, сериалов и прочего у нас, на Rutor.in. Не нужно использовать прокси, чтобы зайти на рутор, достаточно воспользоваться нашим ресурсом. Все новые фильмы, игры, сериалы, книги и музыка за 2013 и 2014 годы через торрент бесплатно. Скачивайте фильмы в хорошем качестве, игры для пк, xbox, playstation без регистрации. У нас вы найдете новые Зарубежные сериалы и Русские сериалы 2013, 2014, 2015 годов. Оставайтесь с нами, качайте любимые фильмы, игры, сериалы, книги и музыку.