img image001 image001 image001 image001 image001 image001 image001 image001 image001 image001 image001 image001 image001 image001 image001

Planets Sun Sun Sun
Статистика раздачи
Автор: PriZraK | Размер: 847.26 МБ | Добавлен: 15 фев 2014
Раздают: 2    Качают: 2
Скачать торрент
Скачать торрент
Описание торрента

СообщениеДобавлено: 15 фев 2014 

Информация о фильме
Название: Пейзажи времени
Оригинальное название: TimeScapes: The Movie
Год выхода: 2012
Жанр: Документальный, видовой, релаксация
Режиссер: Том Лоу

О фильме:
TimeScapes это дебютный фильм оператора и режиссера Тома Лоу. В фильме вы увидите потрясающие пейзажи, людей и дикую природу американского Юго-Запада в замедленной съемке. Лоу провел 2 года колеся по стране на своем пикапе Toyota в поисках подходящих сцен для фильма.

Страна: Новая Зеландия, Southwest Light Ltd.
Продолжительность: 00:48:21
Перевод: Не требуется
Дата релиза: 24.08.2013

Файл
Кодек: H.264
Качество: BDRip (AVC)
Видео: MPEG-4 AVC, 1999 Кбит/с, 1024x576
Звук: AC3, 6 ch, 448 Кбит/с

Общее
Уникальный идентификатор : 174018737679924658357189388094202980713 (0x82EACA2EE7D8B7868F6F84C9395C2969)
Полное имя : E:5Peyzazhi.vremeni.2012.x264.BDRip.(AVC).ExKinoRay.mkv
Формат : Matroska
Размер файла : 847 Мбайт
Продолжительность : 48 м.
Общий поток : 2436 Кбит/сек
Название фильма : Peyzazhi.vremeni.2012.x264.BDRip.(AVC).ExKinoRay
Дата кодирования : UTC 2013-08-23 15:56:20
Программа кодирования : mkvmerge v4.0.0 ('The Stars were mine') сборка от Jun 6 2010 16:18:42
Библиотека кодирования : libebml v1.0.0 + libmatroska v1.0.0

Видео
Идентификатор : 1
Формат : AVC
Формат/Информация : Advanced Video Codec
Профиль формата : High@L4.1
Параметр CABAC формата : Да
Параметр ReFrames формата : 8 кадров
Идентификатор кодека : V_MPEG4/ISO/AVC
Продолжительность : 48 м.
Битрейт : 1999 Кбит/сек
Ширина : 1024 пикс.
Высота : 576 пикс.
Соотношение сторон : 16:9
Частота кадров : 23,976 кадр/сек
Цветовое пространство : YUV
Подвыборка цветности : 4:2:0
Битовая глубина : 8 бит
Тип развёртки : Прогрессивная
Бит/(Пиксели*Кадры) : 0.141
Размер потока : 675 Мбайт (80%)
Заголовок : Rip by Enigma-Vladislav71
Библиотека кодирования : x264 core 129 r2245 bc13772
Настройки программы : cabac=1 / ref=8 / deblock=1:-2:-2 / analyse=0x3:0x133 / me=umh / subme=11 / psy=1 / psy_rd=1.00:0.00 / mixed_ref=1 / me_range=48 / chroma_me=1 / trellis=2 / 8x8dct=1 / cqm=0 / deadzone=21,11 / fast_pskip=0 / chroma_qp_offset=-2 / threads=3 / lookahead_threads=1 / sliced_threads=0 / nr=0 / decimate=0 / interlaced=0 / bluray_compat=0 / constrained_intra=0 / bframes=8 / b_pyramid=2 / b_adapt=2 / b_bias=0 / direct=3 / weightb=1 / open_gop=0 / weightp=2 / keyint=240 / keyint_min=23 / scenecut=40 / intra_refresh=0 / rc_lookahead=40 / rc=2pass / mbtree=1 / bitrate=1999 / ratetol=1.0 / qcomp=0.60 / qpmin=10 / qpmax=51 / qpstep=4 / cplxblur=20.0 / qblur=0.5 / ip_ratio=1.40 / aq=2:1.00
Язык : English

Аудио
Идентификатор : 2
Формат : AC-3
Формат/Информация : Audio Coding 3
Расширение режима : CM (complete main)
Идентификатор кодека : A_AC3
Продолжительность : 48 м.
Вид битрейта : Постоянный
Битрейт : 448 Кбит/сек
Каналы : 6 каналов
Расположение каналов : Front: L C R, Side: L R, LFE
Частота : 48,0 КГц
Битовая глубина : 16 бит
Метод сжатия : С потерями
Размер потока : 156 Мбайт (18%)



Релиз от:

Авторы релиза:



   Похожие торренты   Торрент   Размер 
В этой теме нет новых непрочитанных сообщений. Пейзажи времени / TimeScapes: The Movie (2012) BDRip 1080p

70 | 6

5.76 ГБ

В этой теме нет новых непрочитанных сообщений. Пейзажи времени / TimeScapes: The Movie (2012) BDRip AVC от Generalfilm

1 | 3

691.9 МБ

В этой теме нет новых непрочитанных сообщений. Пейзажи времени / TimeScapes: The Movie (2012) BDRip 1080p | 60FPS

24 | 6

18.72 ГБ

В этой теме нет новых непрочитанных сообщений. Пейзажи времени / TimeScapes: The Movie (2012) HD 1080p

19 | 2

3.48 ГБ

В этой теме нет новых непрочитанных сообщений. Пейзажи времени / TimeScapes: The Movie (2012) 4K Ultra HDRip 2160p

201 | 54

21.22 ГБ

В этой теме нет новых непрочитанных сообщений. Пейзажи времени / TimeScapes: The Movie (2012) Blu-Ray Remux 1080p от Generalfilm

120 | 3

10.44 ГБ

В этой теме нет новых непрочитанных сообщений. Пейзажи времени / TimeScapes: The Movie [Special Edition 30 "HD] (2012) HD 1440p

5 | 3

6.19 ГБ




Вы не можете начинать темы
Вы не можете отвечать на сообщения
Вы не можете редактировать свои сообщения
Вы не можете удалять свои сообщения
Вы не можете добавлять вложения

Перейти:  
Для Мосгорсуда, Роскомнадзора и рекламодателей: mosgorsud-torrent[собачка]yandex.ru
 Вход
ppkBB3cker v.2 © 2008-2014 @ PPK
[ Time : 0.041s | 16 Queries | GZIP : Off ]

cron