img image001 image001 image001 image001 image001 image001 image001 image001 image001 image001 image001 image001 image001 image001 image001

Planets Sun Sun Sun
Статистика раздачи
Автор: PriZraK | Размер: 695.92 МБ | Добавлен: 15 фев 2014
Раздают: 3    Качают: 1
Скачать торрент
Скачать торрент
Описание торрента

СообщениеДобавлено: 15 фев 2014 

Информация о фильме
Название: Человек хаски
Оригинальное название: The Huskyman
Год выхода: 2011
Жанр: Документальный, научно-познавательный, природа, путешествие, исследование, драма, приключения, семейный
Режиссер: Мартин Эйгентлер

О фильме:
Мартин Эйгентлер проводит со своими питомцами 24 часа в сутки. Это каюр - заводчик и простой любитель собак, а также чемпион Европы по собачьим бегам на санях.

Страна: Германия, Sunfilm Entertainment
Продолжительность: 01:01:02
Перевод: Профессиональный двухголосый
Дата релиза: 24.08.2013

Файл
Кодек: H.264
Качество: BDRip (AVC)
Видео: MPEG-4 AVC, 1400 Кбит/с, 1024x428
Звук: AC3, 2 ch, 192 Кбит/с
Общее
Уникальный идентификатор : 181058339587169200826488978462341115024 (0x8836915AA1FCB82D8F1EEDE02550AC90)
Полное имя : E:7Chelovek.haski.2011.x264.BDRip.(AVC).ExKinoRay.mkv
Формат : Matroska
Размер файла : 696 Мбайт
Продолжительность : 1 ч. 1 м.
Общий поток : 1594 Кбит/сек
Название фильма : Chelovek.haski.2011.x264.BDRip.(AVC).ExKinoRay
Дата кодирования : UTC 2013-08-23 21:00:18
Программа кодирования : mkvmerge v4.0.0 ('The Stars were mine') сборка от Jun 6 2010 16:18:42
Библиотека кодирования : libebml v1.0.0 + libmatroska v1.0.0

Видео
Идентификатор : 1
Формат : AVC
Формат/Информация : Advanced Video Codec
Профиль формата : High@L4.1
Параметр CABAC формата : Да
Параметр ReFrames формата : 8 кадров
Идентификатор кодека : V_MPEG4/ISO/AVC
Продолжительность : 1 ч. 1 м.
Битрейт : 1400 Кбит/сек
Ширина : 1024 пикс.
Высота : 428 пикс.
Соотношение сторон : 2,35:1
Частота кадров : 23,976 кадр/сек
Цветовое пространство : YUV
Подвыборка цветности : 4:2:0
Битовая глубина : 8 бит
Тип развёртки : Прогрессивная
Бит/(Пиксели*Кадры) : 0.133
Размер потока : 598 Мбайт (86%)
Заголовок : Rip by Enigma-Vladislav71
Библиотека кодирования : x264 core 125 r2208 d9d2288
Настройки программы : cabac=1 / ref=8 / deblock=1:-2:-2 / analyse=0x3:0x133 / me=umh / subme=11 / psy=1 / psy_rd=1.00:0.00 / mixed_ref=1 / me_range=48 / chroma_me=1 / trellis=2 / 8x8dct=1 / cqm=0 / deadzone=21,11 / fast_pskip=0 / chroma_qp_offset=-2 / threads=3 / lookahead_threads=1 / sliced_threads=0 / nr=0 / decimate=1 / interlaced=0 / bluray_compat=0 / constrained_intra=0 / bframes=8 / b_pyramid=2 / b_adapt=2 / b_bias=0 / direct=3 / weightb=1 / open_gop=0 / weightp=2 / keyint=240 / keyint_min=23 / scenecut=40 / intra_refresh=0 / rc_lookahead=50 / rc=2pass / mbtree=1 / bitrate=1400 / ratetol=1.0 / qcomp=0.60 / qpmin=10 / qpmax=51 / qpstep=4 / cplxblur=20.0 / qblur=0.5 / ip_ratio=1.40 / aq=1:1.00
Язык : English

Аудио
Идентификатор : 2
Формат : AC-3
Формат/Информация : Audio Coding 3
Расширение режима : CM (complete main)
Идентификатор кодека : A_AC3
Продолжительность : 1 ч. 1 м.
Вид битрейта : Постоянный
Битрейт : 192 Кбит/сек
Каналы : 2 канала
Расположение каналов : Front: L R
Частота : 48,0 КГц
Битовая глубина : 16 бит
Метод сжатия : С потерями
Размер потока : 83,8 Мбайт (12%)
Язык : Russian



Релиз от:

Авторы релиза:



   Похожие торренты   Торрент   Размер 
В этой теме нет новых непрочитанных сообщений. Человек хаски / The Huskyman (2011) BDRip 720p | Омикрон

6 | 1

2.53 ГБ

В этой теме нет новых непрочитанных сообщений. Человек хаски / The Huskyman / Der Husky Mann (2011) BDRip | Омикрон

25 | 1

804.23 МБ

В этой теме нет новых непрочитанных сообщений. Человек хаски / Der Husky Mann / The Huskyman (2011) BDRip 1080p | 3D-Video | P2

12 | 3

3.16 ГБ

В этой теме нет новых непрочитанных сообщений. Человек хаски / The Huskyman (2011) Blu-Ray Remux 1080p | Омикрон

0 | 2

7.97 ГБ

В этой теме нет новых непрочитанных сообщений. Хаски / Husky (2011) WEBRip 720p | Точка Zрения

178 | 33

190.19 МБ

В этой теме нет новых непрочитанных сообщений. Дорогой мой человек [1-16 из 16] (2011) WEB-DLRip-AVC от ExKinoRay

13 | 12

11.11 ГБ

В этой теме нет новых непрочитанных сообщений. Человек из ниоткуда / The Man from Nowhere (2010) BDRip-AVC от ExKinoRay | P, A

56 | 8

2.88 ГБ




Вы не можете начинать темы
Вы не можете отвечать на сообщения
Вы не можете редактировать свои сообщения
Вы не можете удалять свои сообщения
Вы не можете добавлять вложения

Перейти:  
Для Мосгорсуда, Роскомнадзора и рекламодателей: mosgorsud-torrent[собачка]yandex.ru
 Вход
ppkBB3cker v.2 © 2008-2014 @ PPK
[ Time : 0.533s | 16 Queries | GZIP : Off ]

Торрент трекер RUTOR.IN, Не можете зайти на rutor.org? Какой новый адрес рутор? Какое зеркало рутор? Не работает rutor.org и зеркала? Тогда наш торрент специально для вас. Rutor.in неофициальное зеркало rutor. В случае если у Вас заблокирован rutor или вдруг Вы не можете на него зайти, то Вы без труда сможете скачать бесплатно и без рекламы последние новинки кино, игр, сериалов и прочего у нас, на Rutor.in. Не нужно использовать прокси, чтобы зайти на рутор, достаточно воспользоваться нашим ресурсом. Все новые фильмы, игры, сериалы, книги и музыка за 2013 и 2014 годы через торрент бесплатно. Скачивайте фильмы в хорошем качестве, игры для пк, xbox, playstation без регистрации. У нас вы найдете новые Зарубежные сериалы и Русские сериалы 2013, 2014, 2015 годов. Оставайтесь с нами, качайте любимые фильмы, игры, сериалы, книги и музыку.
cron