img image001 image001 image001 image001 image001 image001 image001 image001 image001 image001 image001 image001 image001 image001 image001

Planets Sun Sun Sun
Статистика раздачи
Автор: PriZraK | Размер: 1.46 ГБ | Добавлен: 15 фев 2014
Раздают: 0    Качают: 1
Скачать торрент
Скачать торрент
Описание торрента

СообщениеДобавлено: 15 фев 2014 

Крит. Колыбель великой культуры



Год выпуска: 2009
Страна: Германия, Польша, Россия
Студия: Komplett-Media GmbH
Жанр: документальный
Продолжительность: 01:24:00

Перевод: Профессиональный (дикторский закадровый)
Субтитры: нет
Оригинальная аудиодорожка: нет

Описание:
«Есть такая страна посреди винно-цветного моря — Крит прекрасный, богатый, волнами отовсюду омытый», — так писал о Крите Гомер. Сказочные пляжи, кристально-чистая вода, лазурное небо и солнце, очень много солнца — вот характерные черты острова Крит, где, по легенде, родился на свет сам Зевс-Громовержец. Почти на каждом шагу мы встречаем следы бурной истории острова. Культуру, которую называют колыбелью западной цивилизации, создали минойцы. После них наступили времена микенцев и дарийцев, а затем — римлян и византийцев, сарацинов, венецианцев и османов. Каждый из народов, владевших островом, оставил здесь следы своей культуры и традиции. Венецианские и турецкие здания украшают исторические центры самых крупных городов острова: Ираклиона, Ханьи и Ретимнона. Самая известная достопримечательность — Кносс, дворцовый комплекс, где, согласно мифу, жил царь Минос, сын Зевса. Идя по следам литературного и кино-героя, грека Зорбы, мы попадем на «Дикий Запад» Крита — полуостров Акротири. Настоящий подвиг — проход через длинное ущелье Самария. В ходе же дальнейшего путешествия мы откроем для себя идиллические деревушки, античные руины, замки и живописные монастыри, повсюду наслаждаясь деликатесами критской кухни и блаженствуя под ласковым солнцем и голубым небом.





Исходник: DVD5 R5
Тип релиза: DVDRip
Контейнер: AVI

Видео: 704x400 (16:9), 25 fps, XviD ~ 2072 kbps avg, 0.294 bit/pixel
Аудио: 48 kHz, Dolby AC3 2.0, 192.00 kbps Русский
Аудио: 48 kHz, Dolby AC3 2.0, 192.00 kbps Украинский
Общее
Полное имя : Krit.Kolybel.velikoy.kultury.2010.DVDRip_[Youtracker]_by_AVP Studio.avi
Формат : AVI
Формат/Информация : Audio Video Interleave
Размер файла : 1,46 Гбайт
Продолжительность : 1 ч. 24 м.
Общий поток : 2470 Кбит/сек
Программа кодирования : VirtualDubModRus 1.5.10.2 (build 2542/release)
Библиотека кодирования : VirtualDubMod build 2542/release

Видео
Идентификатор : 0
Формат : MPEG-4 Visual
Профиль формата : Advanced Simple@L5
Параметр BVOP формата : 1
Параметр QPel формата : Нет
Параметр GMC формата : Без точки перехода
Параметр матрицы формата : Выборочная
Идентификатор кодека : XVID
Идентификатор кодека/Подсказка : XviD
Продолжительность : 1 ч. 24 м.
Битрейт : 2072 Кбит/сек
Ширина : 704 пикселя
Высота : 400 пикселей
Соотношение сторон : 16:9
Частота кадров : 25,000 кадров/сек
Цветовое пространство : YUV
Субдискретизация насыщенности : 4:2:0
Битовая глубина : 8 бит
Тип развёртки : Прогрессивная
Метод сжатия : С потерями
Бит/(Пиксели*Кадры) : 0.294
Размер потока : 1,22 Гбайт (84%)
Библиотека кодирования : XviD 65

Аудио #1
Идентификатор : 1
Формат : AC-3
Формат/Информация : Audio Coding 3
Расширение режима : CM (complete main)
Идентификатор кодека : 2000
Продолжительность : 1 ч. 24 м.
Вид битрейта : Постоянный
Битрейт : 192 Кбит/сек
Каналы : 2 канала
Расположение каналов : Front: L R
Частота : 48,0 КГц
Битовая глубина : 16 бит
Метод сжатия : С потерями
Размер потока : 116 Мбайт (8%)
Выравнивание : Разделение по промежуткам
Продолжительность промежутка : 40 мс. (1,00 видеокадр)
Время предзагрузки промежутка : 500 мс.

Аудио #2
Идентификатор : 2
Формат : AC-3
Формат/Информация : Audio Coding 3
Расширение режима : CM (complete main)
Идентификатор кодека : 2000
Продолжительность : 1 ч. 24 м.
Вид битрейта : Постоянный
Битрейт : 192 Кбит/сек
Каналы : 2 канала
Расположение каналов : Front: L R
Частота : 48,0 КГц
Битовая глубина : 16 бит
Метод сжатия : С потерями
Размер потока : 116 Мбайт (8%)
Выравнивание : Разделение по промежуткам
Продолжительность промежутка : 40 мс. (1,00 видеокадр)
Время предзагрузки промежутка : 500 мс





   Похожие торренты   Торрент   Размер 
В этой теме нет новых непрочитанных сообщений. Путешествие по Европе. Выпуск №24: Крит (2010) DVDRip от New-Team

4 | 1

745.11 МБ

В этой теме нет новых непрочитанных сообщений. Путешествие по Европе. Выпуск №24: Крит (2010) DVDRip-AVC от New-Team

7 | 1

1.46 ГБ

В этой теме нет новых непрочитанных сообщений. Путешествие по Европе. Выпуск №24: Крит (2010) DVD5 R5 от New-Team

1 | 1

3.96 ГБ

В этой теме нет новых непрочитанных сообщений. Путешествие по Европе. Выпуск №42: Бретань (2010) DVDRip-AVC от New-Team

3 | 5

744.44 МБ

В этой теме нет новых непрочитанных сообщений. Путешествие по Европе. Выпуск №42: Бретань (2010) DVDRip от New-Team

5 | 3

746.79 МБ

В этой теме нет новых непрочитанных сообщений. Путешествие по Европе. Выпуск №48: Сардиния (2010) DVDRip от New-Team

4 | 5

1.46 ГБ

В этой теме нет новых непрочитанных сообщений. Путешествие по Европе. Выпуск №48: Сардиния (2010) DVDRip-AVC от New-Team

9 | 4

1.46 ГБ




Вы не можете начинать темы
Вы не можете отвечать на сообщения
Вы не можете редактировать свои сообщения
Вы не можете удалять свои сообщения
Вы не можете добавлять вложения

Перейти:  
Для Мосгорсуда, Роскомнадзора и рекламодателей: mosgorsud-torrent[собачка]yandex.ru
 Вход
ppkBB3cker v.2 © 2008-2014 @ PPK
[ Time : 0.036s | 16 Queries | GZIP : Off ]

cron