img image001 image001 image001 image001 image001 image001 image001 image001 image001 image001 image001 image001 image001 image001 image001

Planets Sun Sun Sun
Статистика раздачи
Автор: PriZraK | Размер: 2.21 ГБ | Добавлен: 15 фев 2014
Раздают: 3    Качают: 1
Скачать торрент
Скачать торрент
Описание торрента

СообщениеДобавлено: 15 фев 2014 

Информация о фильме
Название: Проблема Антарктиды: Предупреждение миру
Оригинальное название: The Antarctica Challenge: A Global Warning
Год выхода: 2009
Жанр: Документальный
Режиссер: Марк Терри
В ролях: Нет

О фильме:
Все, что происходит в Антарктиде сегодня, обязательно отразится на мировом климате завтра. Изменения в синоптической ситуации, исчезающая жизнь в океане, все это служит сигналами к действиям. Режиссер Марк Терри возглавляет экспедицию, результаты научных исследований которой удивляют и шокируют. Дикая природа и ландшафт седьмого континента меняются с невероятной скоростью. Этот документальный фильм затрагивает такие глобальные явления в окружающей среде, как «пингвины - самоубийцы», которые покидают свои стаи, чтобы уйти от моря вглубь континента и морские львы, ослепшие от ультрафиолетовых лучей. Цель экспедиции призвать мировую общественность к ответственности перед этими шокирующими фактами.
Официальный сайт

Страна: США, Канада
Студия: Polar Cap Productions
Продолжительность: 00:52:04
Перевод: Дублированный

Файл
Кодек: x264
Качество: BDRip 720p
Видео: MPEG-4 AVC, 5500 Кбит/с, 1280x720, 29.970 кадр/с
Звук:
Русский (AC3, 2 ch, 192 Кбит/с) / SDI Media
Русский (AC3, 2 ch, 192 Кбит/с) /СВ-Дубль
Английский (AC3, 6 ch, 192 Кбит/с)
Субтитры: Английский

Семпл
Формат : Matroska
Версия формата : Version 2
Размер файла : 2,21 Гбайт
Продолжительность : 52 м.
Общий поток : 6077 Кбит/сек
Название фильма : Release for MediaClub by AlexAndr92
Дата кодирования : UTC 2013-08-29 16:37:18
Программа кодирования : mkvmerge v4.0.0 ('The Stars were mine') сборка от Jun 6 2010 16:18:42
Библиотека кодирования : libebml v1.0.0 + libmatroska v1.0.0

Видео
Идентификатор : 1
Формат : AVC
Формат/Информация : Advanced Video Codec
Профиль формата : High@L4.1
Параметр CABAC формата : Да
Параметр ReFrames формата : 9 кадров
Идентификатор кодека : V_MPEG4/ISO/AVC
Продолжительность : 52 м.
Битрейт : 5500 Кбит/сек
Ширина : 1280 пикселей
Высота : 720 пикселей
Соотношение сторон : 16:9
Режим частоты кадров : Постоянный
Частота кадров : 29,970 кадров/сек
Цветовое пространство : YUV
Субдискретизация насыщенности : 4:2:0
Битовая глубина : 8 бит
Тип развёртки : Прогрессивная
Бит/(Пиксели*Кадры) : 0.199
Размер потока : 1,96 Гбайт (89%)
Библиотека кодирования : x264 core 130 r2273 b3065e6
Настройки программы : cabac=1 / ref=9 / deblock=1:-1:-1 / analyse=0x3:0x133 / me=umh / subme=11 / psy=1 / psy_rd=1.00:0.15 / mixed_ref=1 / me_range=32 / chroma_me=1 / trellis=2 / 8x8dct=1 / cqm=0 / deadzone=21,11 / fast_pskip=0 / chroma_qp_offset=-3 / threads=6 / lookahead_threads=1 / sliced_threads=0 / nr=0 / decimate=0 / interlaced=0 / bluray_compat=0 / constrained_intra=0 / bframes=8 / b_pyramid=2 / b_adapt=2 / b_bias=0 / direct=3 / weightb=1 / open_gop=0 / weightp=2 / keyint=250 / keyint_min=25 / scenecut=40 / intra_refresh=0 / rc=2pass / mbtree=0 / bitrate=5500 / ratetol=1.0 / qcomp=0.60 / qpmin=0 / qpmax=69 / qpstep=4 / cplxblur=20.0 / qblur=0.5 / ip_ratio=1.40 / pb_ratio=1.30 / aq=1:1.00
Язык : English
Default : Нет
Forced : Нет

Аудио #1
Идентификатор : 2
Формат : AC-3
Формат/Информация : Audio Coding 3
Расширение режима : CM (complete main)
Параметр Endianness формата : Big
Идентификатор кодека : A_AC3
Продолжительность : 52 м.
Вид битрейта : Постоянный
Битрейт : 192 Кбит/сек
Каналы : 2 канала
Расположение каналов : Front: L R
Частота : 44,1 КГц
Битовая глубина : 16 бит
Метод сжатия : С потерями
Размер потока : 71,5 Мбайт (3%)
Заголовок : SDI Media
Язык : Russian
Default : Нет
Forced : Нет

Аудио #2
Идентификатор : 3
Формат : AC-3
Формат/Информация : Audio Coding 3
Расширение режима : CM (complete main)
Параметр Endianness формата : Big
Идентификатор кодека : A_AC3
Продолжительность : 52 м.
Вид битрейта : Постоянный
Битрейт : 192 Кбит/сек
Каналы : 2 канала
Расположение каналов : Front: L R
Частота : 44,1 КГц
Битовая глубина : 16 бит
Метод сжатия : С потерями
Размер потока : 71,5 Мбайт (3%)
Заголовок : СВ-Дубль
Язык : Russian
Default : Нет
Forced : Нет

Аудио #3
Идентификатор : 4
Формат : AC-3
Формат/Информация : Audio Coding 3
Расширение режима : CM (complete main)
Параметр Endianness формата : Big
Идентификатор кодека : A_AC3
Продолжительность : 52 м.
Вид битрейта : Постоянный
Битрейт : 192 Кбит/сек
Каналы : 6 каналов
Расположение каналов : Front: L C R, Side: L R, LFE
Частота : 44,1 КГц
Битовая глубина : 16 бит
Метод сжатия : С потерями
Размер потока : 71,5 Мбайт (3%)
Язык : English
Default : Нет
Forced : Нет

Текст
Идентификатор : 5
Формат : UTF-8
Идентификатор кодека : S_TEXT/UTF8
Идентификатор кодека/Информация : UTF-8 Plain Text
Язык : English
Default : Да
Forced : Нет

Меню
00:00:00.000 : :Chapter 01
00:09:11.951 : :Chapter 02
00:17:26.512 : :Chapter 03
00:26:41.533 : :Chapter 04
00:34:35.306 : :Chapter 05
00:43:25.336 : :Chapter 06
00:52:03.320 : :Chapter 07





Релиз от: Релиз от: | AlexAndr92



   Похожие торренты   Торрент   Размер 
В этой теме нет новых непрочитанных сообщений. Штормовое предупреждение / Storm Warning (2007) BDRip 720p от FLINTFILMS

9 | 30

2.25 ГБ

В этой теме нет новых непрочитанных сообщений. Штормовое предупреждение / Storm Warning (2007) BDRip 720p by msltel

208 | 39

4.16 ГБ

В этой теме нет новых непрочитанных сообщений. Штормовое предупреждение / Storm Warning (2007) BDRip-AVC от 0ptimus | D, L1

97 | 28

2.44 ГБ

В этой теме нет новых непрочитанных сообщений. Штормовое предупреждение / Storm Warning (2007) BDRip-AVC by msltel

200 | 23

2.45 ГБ

В этой теме нет новых непрочитанных сообщений. Штормовое предупреждение / Storm Warning (2007) BDRip от Xixidok | Unrated

3 | 2

1.38 ГБ

В этой теме нет новых непрочитанных сообщений. Штормовое предупреждение / Storm Warning (2007) BDRip от HQCLUB | Unrated

144 | 35

1.45 ГБ

В этой теме нет новых непрочитанных сообщений. Штормовое предупреждение / Storm Warning (2007) BDRip 1080p by msltel

61 | 25

13.15 ГБ




Вы не можете начинать темы
Вы не можете отвечать на сообщения
Вы не можете редактировать свои сообщения
Вы не можете удалять свои сообщения
Вы не можете добавлять вложения

Перейти:  
Для Мосгорсуда, Роскомнадзора и рекламодателей: mosgorsud-torrent[собачка]yandex.ru
 Вход
ppkBB3cker v.2 © 2008-2014 @ PPK
[ Time : 0.028s | 15 Queries | GZIP : Off ]

Торрент трекер RUTOR.IN, Не можете зайти на rutor.org? Какой новый адрес рутор? Какое зеркало рутор? Не работает rutor.org и зеркала? Тогда наш торрент специально для вас. Rutor.in неофициальное зеркало rutor. В случае если у Вас заблокирован rutor или вдруг Вы не можете на него зайти, то Вы без труда сможете скачать бесплатно и без рекламы последние новинки кино, игр, сериалов и прочего у нас, на Rutor.in. Не нужно использовать прокси, чтобы зайти на рутор, достаточно воспользоваться нашим ресурсом. Все новые фильмы, игры, сериалы, книги и музыка за 2013 и 2014 годы через торрент бесплатно. Скачивайте фильмы в хорошем качестве, игры для пк, xbox, playstation без регистрации. У нас вы найдете новые Зарубежные сериалы и Русские сериалы 2013, 2014, 2015 годов. Оставайтесь с нами, качайте любимые фильмы, игры, сериалы, книги и музыку.