img image001 image001 image001 image001 image001 image001 image001 image001 image001 image001 image001 image001 image001 image001 image001

Planets Sun Sun Sun
Статистика раздачи
Автор: PriZraK | Размер: 1.22 ГБ | Добавлен: 15 фев 2014
Раздают: 80    Качают: 4
Скачать торрент
Скачать торрент
Описание торрента

СообщениеДобавлено: 15 фев 2014 

Информация о фильме
Название: Астрономия каменного века
Оригинальное название: Prehistoric Astronomers
Год выпуска: 2010
Жанр: Документальный, научно-познавательный, альтернативная история, псевдоистория, астрономия
Режиссер: Стефан Бегуэн, Педро Лима, Винсент Тардьё

О фильме: Ученые предполагают, что человек эпохи Каменного века знал карту звездного неба куда лучше, чем мы можем себе представить. И это притом, что никаких измерительных приборов тогда не существовало. В течение последних 20 лет независимый астроном и этнолог Шанталь Жегес-Волькевич вела тщательные исследования, чтобы доказать эти предположения. Согласно результатам ее исследований первобытные люди выбирали свои пещеры в зависимости от ориентации по солнцу, изготовляли такие измерительные приборы, как лунный календарь, а их наскальные рисунки стали первыми картами звездного неба.

Выпущено: Франция, Arte France, Bonne Pioche
Продолжительность: 00:51:35
Перевод: Дублированный

Файл
Кодек: Н264
Качество: BDRip (AVC)
Видео: 2500 Kбит/с, 1024x576
Звук: Русский (AС3, 2 ch, 448 Кбит/с), английский (AС3, 6 ch, 448 Кбит/с)

Общее
Уникальный идентификатор : 237765839024844249667601873790743205484 (0xB2E008F00F733D1FAB5F031F1009D66C)
Полное имя : E:3Astronomija.kamennogo.veka.2010.x264.BDRip.(AVC).ExKinoRay.mkv
Формат : Matroska
Размер файла : 1,22 Гбайт
Продолжительность : 51 м.
Общий поток : 3397 Кбит/сек
Название фильма : Astronomija.kamennogo.veka.2010.x264.BDRip.(AVC).ExKinoRay
Дата кодирования : UTC 2013-08-30 17:04:08
Программа кодирования : mkvmerge v4.0.0 ('The Stars were mine') сборка от Jun 6 2010 16:18:42
Библиотека кодирования : libebml v1.0.0 + libmatroska v1.0.0

Видео
Идентификатор : 1
Формат : AVC
Формат/Информация : Advanced Video Codec
Профиль формата : High@L4.1
Параметр CABAC формата : Да
Параметр ReFrames формата : 8 кадров
Параметры GOP формата : M=1, N=2
Идентификатор кодека : V_MPEG4/ISO/AVC
Продолжительность : 51 м.
Битрейт : 2500 Кбит/сек
Ширина : 1024 пикс.
Высота : 576 пикс.
Соотношение сторон : 16:9
Частота кадров : 25,000 кадр/сек
Цветовое пространство : YUV
Подвыборка цветности : 4:2:0
Битовая глубина : 8 бит
Тип развёртки : Прогрессивная
Бит/(Пиксели*Кадры) : 0.170
Размер потока : 898 Мбайт (72%)
Заголовок : Rip by Enigma-Vladislav71
Библиотека кодирования : x264 core 129 r2245 bc13772
Настройки программы : cabac=1 / ref=8 / deblock=1:-2:-2 / analyse=0x3:0x133 / me=umh / subme=11 / psy=1 / psy_rd=1.00:0.00 / mixed_ref=1 / me_range=48 / chroma_me=1 / trellis=2 / 8x8dct=1 / cqm=0 / deadzone=21,11 / fast_pskip=0 / chroma_qp_offset=-2 / threads=3 / lookahead_threads=1 / sliced_threads=0 / nr=0 / decimate=0 / interlaced=0 / bluray_compat=0 / constrained_intra=0 / bframes=8 / b_pyramid=2 / b_adapt=2 / b_bias=0 / direct=3 / weightb=1 / open_gop=0 / weightp=2 / keyint=250 / keyint_min=25 / scenecut=40 / intra_refresh=0 / rc_lookahead=40 / rc=2pass / mbtree=1 / bitrate=2500 / ratetol=1.0 / qcomp=0.60 / qpmin=10 / qpmax=51 / qpstep=4 / cplxblur=20.0 / qblur=0.5 / ip_ratio=1.40 / aq=2:1.00
Язык : English

Аудио #1
Идентификатор : 2
Формат : AC-3
Формат/Информация : Audio Coding 3
Расширение режима : CM (complete main)
Идентификатор кодека : A_AC3
Продолжительность : 51 м.
Вид битрейта : Постоянный
Битрейт : 448 Кбит/сек
Каналы : 2 канала
Расположение каналов : Front: L R
Частота : 48,0 КГц
Битовая глубина : 16 бит
Метод сжатия : С потерями
Размер потока : 165 Мбайт (13%)
Язык : Russian

Аудио #2
Идентификатор : 3
Формат : AC-3
Формат/Информация : Audio Coding 3
Расширение режима : CM (complete main)
Идентификатор кодека : A_AC3
Продолжительность : 51 м.
Вид битрейта : Постоянный
Битрейт : 448 Кбит/сек
Каналы : 6 каналов
Расположение каналов : Front: L C R, Side: L R, LFE
Частота : 48,0 КГц
Битовая глубина : 16 бит
Метод сжатия : С потерями
Размер потока : 165 Мбайт (13%)
Язык : English





Релиз от:

Авторы релиза:



   Похожие торренты   Торрент   Размер 
В этой теме нет новых непрочитанных сообщений. Вне времени. Калашников из каменного века (2010) DVDRip-AVC от Тorrent-Хzona

2 | 2

776.59 МБ

В этой теме нет новых непрочитанных сообщений. National Geographic: Атлантида каменного века / Stone Age Atlantis (2010) SATRip

0 | 25

1.18 ГБ

В этой теме нет новых непрочитанных сообщений. Флинстоуны: Борцы каменного века / The Flintstones and WWE: Stone Age Smackdown (2015) BDRip от HQCLUB

51 | 5

1022.29 МБ

В этой теме нет новых непрочитанных сообщений. Флинстоуны: борцы каменного века / The Flintstones and WWE: Stone Age Smackdown (2014) BDRip 1080p | P | Чистый звук

85 | 8

2.94 ГБ

В этой теме нет новых непрочитанных сообщений. Флинстоуны: борцы каменного века / The Flintstones and WWE: Stone Age Smackdown (2015) BDRip 720p от Leonardo and Scarabey

217 | 18

1.12 ГБ

В этой теме нет новых непрочитанных сообщений. Флинстоуны: борцы каменного века / The Flintstones and WWE: Stone Age Smackdown (2015) BDRip-AVC от 0ptimus | Чистый звук

107 | 3

890.35 МБ

В этой теме нет новых непрочитанных сообщений. Флинстоуны: борцы каменного века / The Flintstones and WWE: Stone Age Smackdown (2015) BDRip 1080p от Leonardo and Scarabey

149 | 18

2.55 ГБ




Вы не можете начинать темы
Вы не можете отвечать на сообщения
Вы не можете редактировать свои сообщения
Вы не можете удалять свои сообщения
Вы не можете добавлять вложения

Перейти:  
Для Мосгорсуда, Роскомнадзора и рекламодателей: mosgorsud-torrent[собачка]yandex.ru
 Вход
ppkBB3cker v.2 © 2008-2014 @ PPK
[ Time : 0.034s | 15 Queries | GZIP : Off ]

Торрент трекер RUTOR.IN, Не можете зайти на rutor.org? Какой новый адрес рутор? Какое зеркало рутор? Не работает rutor.org и зеркала? Тогда наш торрент специально для вас. Rutor.in неофициальное зеркало rutor. В случае если у Вас заблокирован rutor или вдруг Вы не можете на него зайти, то Вы без труда сможете скачать бесплатно и без рекламы последние новинки кино, игр, сериалов и прочего у нас, на Rutor.in. Не нужно использовать прокси, чтобы зайти на рутор, достаточно воспользоваться нашим ресурсом. Все новые фильмы, игры, сериалы, книги и музыка за 2013 и 2014 годы через торрент бесплатно. Скачивайте фильмы в хорошем качестве, игры для пк, xbox, playstation без регистрации. У нас вы найдете новые Зарубежные сериалы и Русские сериалы 2013, 2014, 2015 годов. Оставайтесь с нами, качайте любимые фильмы, игры, сериалы, книги и музыку.