img image001 image001 image001 image001 image001 image001 image001 image001 image001 image001 image001 image001 image001 image001 image001

Planets Sun Sun Sun
Статистика раздачи
Автор: PriZraK | Размер: 1.25 ГБ | Добавлен: 15 фев 2014
Раздают: 4    Качают: 2
Скачать торрент
Скачать торрент
Описание торрента

СообщениеДобавлено: 15 фев 2014 

Информация о фильме
Название: Наша природа
Оригинальное название: Unsere Natur
Год выпуска: 2011
Жанр: Документальный, релакс, природа, фауна

О фильме: Красивый и расслабляющий фильм о природе, показывающий красоту нашей планеты под релаксирующую музыку. Устройтесь поудобнее и наслаждайтесь фантастическими впечатлениями от природы.

Выпущено: Германия, HD Movie Production
Продолжительность: 01:00:00
Перевод: Не требуется

Файл
Кодек: H264
Качество: BDRip (AVC)
Видео: 2499 Kбит/с, 1024x576, 23.976 кадр/с
Звук: Музыка (AC3, 6 ch, 448 Кбит/с)

Общее
Уникальный идентификатор : 178983461528148615412412139671392954282 (0x86A6F5F7B0E33C07BE0F48AF028927AA)
Полное имя : E:2Nasha.priroda.2011.x264.BDRip.(AVC).ExKinoRay.mkv
Формат : Matroska
Размер файла : 1,25 Гбайт
Продолжительность : 1 ч. 0 м.
Общий поток : 2948 Кбит/сек
Название фильма : Nasha.priroda.2011.x264.BDRip.(AVC).ExKinoRay
Дата кодирования : UTC 2013-08-30 17:54:53
Программа кодирования : mkvmerge v4.0.0 ('The Stars were mine') сборка от Jun 6 2010 16:18:42
Библиотека кодирования : libebml v1.0.0 + libmatroska v1.0.0

Видео
Идентификатор : 1
Формат : AVC
Формат/Информация : Advanced Video Codec
Профиль формата : High@L4.1
Параметр CABAC формата : Да
Параметр ReFrames формата : 8 кадров
Идентификатор кодека : V_MPEG4/ISO/AVC
Продолжительность : 1 ч. 0 м.
Битрейт : 2499 Кбит/сек
Ширина : 1024 пикс.
Высота : 576 пикс.
Соотношение сторон : 16:9
Частота кадров : 23,976 кадр/сек
Цветовое пространство : YUV
Подвыборка цветности : 4:2:0
Битовая глубина : 8 бит
Тип развёртки : Прогрессивная
Бит/(Пиксели*Кадры) : 0.177
Размер потока : 1,03 Гбайт (83%)
Заголовок : Rip by Enigma-Vladislav71
Библиотека кодирования : x264 core 129 r2245 bc13772
Настройки программы : cabac=1 / ref=8 / deblock=1:-2:-2 / analyse=0x3:0x133 / me=umh / subme=11 / psy=1 / psy_rd=1.00:0.00 / mixed_ref=1 / me_range=48 / chroma_me=1 / trellis=2 / 8x8dct=1 / cqm=0 / deadzone=21,11 / fast_pskip=0 / chroma_qp_offset=-2 / threads=3 / lookahead_threads=1 / sliced_threads=0 / nr=0 / decimate=0 / interlaced=0 / bluray_compat=0 / constrained_intra=0 / bframes=8 / b_pyramid=2 / b_adapt=2 / b_bias=0 / direct=3 / weightb=1 / open_gop=0 / weightp=2 / keyint=240 / keyint_min=23 / scenecut=40 / intra_refresh=0 / rc_lookahead=40 / rc=2pass / mbtree=1 / bitrate=2499 / ratetol=1.0 / qcomp=0.60 / qpmin=10 / qpmax=51 / qpstep=4 / cplxblur=20.0 / qblur=0.5 / ip_ratio=1.40 / aq=2:1.00
Язык : English

Аудио
Идентификатор : 2
Формат : AC-3
Формат/Информация : Audio Coding 3
Расширение режима : CM (complete main)
Идентификатор кодека : A_AC3
Продолжительность : 1 ч. 0 м.
Вид битрейта : Постоянный
Битрейт : 448 Кбит/сек
Каналы : 6 каналов
Расположение каналов : Front: L C R, Side: L R, LFE
Частота : 48,0 КГц
Битовая глубина : 16 бит
Метод сжатия : С потерями
Размер потока : 194 Мбайт (15%)






Релиз от:

Авторы релиза:



   Похожие торренты   Торрент   Размер 
В этой теме нет новых непрочитанных сообщений. Наша природа 3D / Unsere Natur 3D (2011) BDRip AVC от Generalfilm

0 | 3

1.36 ГБ

В этой теме нет новых непрочитанных сообщений. Наша природа 3D / Unsere Natur 3D (2011) BDRip от Generalfilm

0 | 2

1.37 ГБ

В этой теме нет новых непрочитанных сообщений. Наша природа / Unsere Natur (2011) BDRemux

2 | 4

6.1 ГБ

В этой теме нет новых непрочитанных сообщений. Сфера колдовства / La cle des champs / Das Wunder der Natur (2011) BDRip-AVC от ExKinoRay

7 | 2

1.4 ГБ

В этой теме нет новых непрочитанных сообщений. Наши матери, наши отцы / Unsere Mütter, unsere Väter [01-03 из 3] (2013) BDRip 720p | L, L1

25 | 5

11.92 ГБ

В этой теме нет новых непрочитанных сообщений. Наши матери, наши отцы / Unsere Mütter, unsere Väter [01-03 из 03] (2013) BDRip | Sub

224 | 8

7.32 ГБ

В этой теме нет новых непрочитанных сообщений. Дикая природа Скандинавии / Wildes Skandinavien [01-07 из 07] (2011) BDRip-AVC от ExKinoRay

2 | 5

8.18 ГБ




Вы не можете начинать темы
Вы не можете отвечать на сообщения
Вы не можете редактировать свои сообщения
Вы не можете удалять свои сообщения
Вы не можете добавлять вложения

Перейти:  
Для Мосгорсуда, Роскомнадзора и рекламодателей: mosgorsud-torrent[собачка]yandex.ru
 Вход
ppkBB3cker v.2 © 2008-2014 @ PPK
[ Time : 0.049s | 15 Queries | GZIP : On ]

Торрент трекер RUTOR.IN, Не можете зайти на rutor.org? Какой новый адрес рутор? Какое зеркало рутор? Не работает rutor.org и зеркала? Тогда наш торрент специально для вас. Rutor.in неофициальное зеркало rutor. В случае если у Вас заблокирован rutor или вдруг Вы не можете на него зайти, то Вы без труда сможете скачать бесплатно и без рекламы последние новинки кино, игр, сериалов и прочего у нас, на Rutor.in. Не нужно использовать прокси, чтобы зайти на рутор, достаточно воспользоваться нашим ресурсом. Все новые фильмы, игры, сериалы, книги и музыка за 2013 и 2014 годы через торрент бесплатно. Скачивайте фильмы в хорошем качестве, игры для пк, xbox, playstation без регистрации. У нас вы найдете новые Зарубежные сериалы и Русские сериалы 2013, 2014, 2015 годов. Оставайтесь с нами, качайте любимые фильмы, игры, сериалы, книги и музыку.