img image001 image001 image001 image001 image001 image001 image001 image001 image001 image001 image001 image001 image001 image001 image001

Planets Sun Sun Sun
Статистика раздачи
Автор: PriZraK | Размер: 14.45 ГБ | Добавлен: 15 фев 2014
Раздают: 1    Качают: 1
Скачать торрент
Скачать торрент
Описание торрента

СообщениеДобавлено: 15 фев 2014 

Информация о фильме
Название: В тени Луны
Оригинальное название: In the Shadow of the Moon
Год выхода: 2007
Жанр: Документальный, история
Режиссер: Дэвид Сингтон
В ролях: Базз Алдрин, Нил Армстронг, Стивен Армстронг, Виола Армстронг, Алан Бин, Юджин Сирнан, Майкл Коллинз, Чарльз Дьюк, Джон Ф. Кеннеди,Джим Ловелл, Эдгар Д. Митчелл, Гарри Мур, Харрисон Шмитт, Дэйв Скотт, Джон Янг, Уолтер Кронкит, Линдон Джонсон, Гарри Крамер, Королева Елизавета II, Сэм Рэйберн

О фильме:
В период с 1968 по 1972 годы к Луне были отправлены 9 космических экипажей, по ее поверхности ходили 12 человек. Они остаются единственными людьми, стоявшими на другом небесном теле.
Санденс, 2007 год
Победитель (1):
Приз зрительских симпатий в категории «Документальный фильм» (Программа «Мировое кино»)
Номинации (1):
Гран-при в категории «Документальный фильм» (Программа «Мировое кино»)
Огромная благодарность Media-Art-Club за созданный постер к раздаче!
Полное имя : G:Готово!!!V.teni.luny.2007.x264.Blu-ray.Remux.1080p-MediaClub.mkv
Формат : Matroska
Версия формата : Version 2
Размер файла : 14,4 Гбайт
Продолжительность : 1 ч. 39 м.
Общий поток : 20,7 Мбит/сек
Название фильма : V teni Luny (2007) BDRemux 1080p=MediaClub=-[Викс]-
Дата кодирования : UTC 2013-09-05 09:33:28
Программа кодирования : mkvmerge v5.8.0 ('No Sleep / Pillow') built on Sep 2 2012 15:37:04
Библиотека кодирования : libebml v1.2.3 + libmatroska v1.3.0

Видео
Идентификатор : 1
Формат : VC-1
Профиль формата : Advanced@L3
Идентификатор кодека : V_MS/VFW/FOURCC / WVC1
Идентификатор кодека/Подсказка : Microsoft
Продолжительность : 1 ч. 39 м.
Битрейт : 15,6 Мбит/сек
Ширина : 1920 пикселей
Высота : 1080 пикселей
Соотношение сторон : 16:9
Режим частоты кадров : Постоянный
Частота кадров : 24,000 кадра/сек
Цветовое пространство : YUV
Субдискретизация насыщенности : 4:2:0
Битовая глубина : 8 бит
Тип развёртки : Прогрессивная
Метод сжатия : С потерями
Бит/(Пиксели*Кадры) : 0.314
Размер потока : 10,9 Гбайт (75%)
Язык : English
Default : Нет
Forced : Нет

Аудио #1
Идентификатор : 2
Формат : AC-3
Формат/Информация : Audio Coding 3
Расширение режима : CM (complete main)
Параметр Endianness формата : Big
Идентификатор кодека : A_AC3
Продолжительность : 1 ч. 39 м.
Вид битрейта : Постоянный
Битрейт : 160 Кбит/сек
Каналы : 2 канала
Расположение каналов : Front: L R
Частота : 48,0 КГц
Битовая глубина : 16 бит
Метод сжатия : С потерями
Размер потока : 114 Мбайт (1%)
Язык : Russian
Default : Да
Forced : Нет

Аудио #2
Идентификатор : 3
Формат : DTS
Формат/Информация : Digital Theater Systems
Профиль формата : HRA / Core
Режим : 16
Параметр Endianness формата : Big
Идентификатор кодека : A_DTS
Продолжительность : 1 ч. 39 м.
Вид битрейта : Постоянный
Битрейт : 3018 Кбит/сек / 1509 Кбит/сек
Каналы : 6 каналов
Расположение каналов : Front: L C R, Side: L R, LFE
Частота : 48,0 КГц
Битовая глубина : 16 бит
Метод сжатия : С потерями
Размер потока : 2,10 Гбайт (15%)
Язык : English
Default : Нет
Forced : Нет

Аудио #3
Идентификатор : 4
Формат : DTS
Формат/Информация : Digital Theater Systems
Режим : 16
Параметр Endianness формата : Big
Идентификатор кодека : A_DTS
Продолжительность : 1 ч. 39 м.
Вид битрейта : Постоянный
Битрейт : 1509 Кбит/сек
Каналы : 6 каналов
Расположение каналов : Front: L C R, Side: L R, LFE
Частота : 48,0 КГц
Битовая глубина : 16 бит
Метод сжатия : С потерями
Размер потока : 1,05 Гбайт (7%)
Язык : German
Default : Нет
Forced : Нет

Текст
Идентификатор : 5
Формат : UTF-8
Идентификатор кодека : S_TEXT/UTF8
Идентификатор кодека/Информация : UTF-8 Plain Text
Язык : Russian
Default : Да
Forced : Нет

Меню
00:00:00.000 : :Chapter 01
00:10:36.083 : :Chapter 02
00:19:45.000 : :Chapter 03
00:22:16.125 : :Chapter 04
00:26:54.416 : :Chapter 05
00:36:19.000 : :Chapter 06
00:52:12.083 : :Chapter 07
01:01:34.666 : :Chapter 08
01:11:47.208 : :Chapter 09
01:15:47.708 : :Chapter 10
01:24:51.791 : :Chapter 11
01:31:29.416 : :Chapter 12
Рейтинг PG - Рекомендуется присутствие родителей
Этот рейтинг получают фильмы, которые требуют внимания со стороны родителей. Возможно некоторые сцены из картины родители посчитают неприемлемыми для просмотра своими детьми. Но в фильме точно отсутствуют сексуальные эпизоды и сцены с использованием наркотиков. Рейтинг PG никогда не присвоят ленте жанра хоррор или триллер.

Официальный сайт

Страна: Великобритания, США
Студия: Discovery Films, FilmFour, Passion Pictures
Продолжительность: 01:39:45
Перевод: Любительский одноголосый

Файл
Кодек: VC-1
Качество: Blu-ray Remux 1080p
Видео: VC-1, 15.6 Мбит/с, 1920x1080, 24.000 кадр/с
Звук:
Аудио #1: Русский (AC3, 2 ch, 160 Кбит/с) / Любительский одноголосый
Аудио #2: Английский (DTS-HD MA, 6 ch, 3018 Кбит/с)
Аудио #3: Немецкий (DTS, 6 ch, 1509 Кбит/с)
Субтитры: Русские

Семпл



Релиз от: Работа с аудио - Викс



   Похожие торренты   Торрент   Размер 
В этой теме нет новых непрочитанных сообщений. В тени Луны / In the Shadow of the Moon (2007) BDRip-AVC от MediaClub | L1

2 | 1

2.72 ГБ

В этой теме нет новых непрочитанных сообщений. В тени Луны / In the Shadow of the Moon (2007) BDRip от MediaClub | L1

3 | 2

1.37 ГБ

В этой теме нет новых непрочитанных сообщений. В тени Луны / In the Shadow of the Moon (2007) BDRip 720p от MediaClub | L1

0 | 1

4.19 ГБ

В этой теме нет новых непрочитанных сообщений. Восход «Черной луны» / Black Moon Rising (1986) BDRip 1080p от MediaClub | P, P2, A

34 | 6

11.94 ГБ

В этой теме нет новых непрочитанных сообщений. Змея в тени орла / Se ying diu sau / Snake in the Eagle's Shadow (1978) BDRip 1080p от MediaClub | P, P2, A

64 | 10

13.37 ГБ

В этой теме нет новых непрочитанных сообщений. Тень Волка: Проклятие Полной Луны. Коллекционное издание / Shadow Wolf Mysteries: Curse of the Full Moon. Collector's Edition (2011) PC

40 | 9

591.67 МБ

В этой теме нет новых непрочитанных сообщений. Сталкер : Тени Чернобыля / S.T.A.L.K.E.R. Shadow of Chernobyl v 1.0008 (2007) PC

2495 | 153

1.53 ГБ




Вы не можете начинать темы
Вы не можете отвечать на сообщения
Вы не можете редактировать свои сообщения
Вы не можете удалять свои сообщения
Вы не можете добавлять вложения

Перейти:  
Для Мосгорсуда, Роскомнадзора и рекламодателей: mosgorsud-torrent[собачка]yandex.ru
 Вход
ppkBB3cker v.2 © 2008-2014 @ PPK
[ Time : 0.028s | 15 Queries | GZIP : Off ]

Торрент трекер RUTOR.IN, Не можете зайти на rutor.org? Какой новый адрес рутор? Какое зеркало рутор? Не работает rutor.org и зеркала? Тогда наш торрент специально для вас. Rutor.in неофициальное зеркало rutor. В случае если у Вас заблокирован rutor или вдруг Вы не можете на него зайти, то Вы без труда сможете скачать бесплатно и без рекламы последние новинки кино, игр, сериалов и прочего у нас, на Rutor.in. Не нужно использовать прокси, чтобы зайти на рутор, достаточно воспользоваться нашим ресурсом. Все новые фильмы, игры, сериалы, книги и музыка за 2013 и 2014 годы через торрент бесплатно. Скачивайте фильмы в хорошем качестве, игры для пк, xbox, playstation без регистрации. У нас вы найдете новые Зарубежные сериалы и Русские сериалы 2013, 2014, 2015 годов. Оставайтесь с нами, качайте любимые фильмы, игры, сериалы, книги и музыку.