img image001 image001 image001 image001 image001 image001 image001 image001 image001 image001 image001 image001 image001 image001 image001

Planets Sun Sun Sun
Статистика раздачи
Автор: PriZraK | Размер: 1.46 ГБ | Добавлен: 15 фев 2014
Раздают: 73    Качают: 3
Скачать торрент
Скачать торрент
Описание торрента

СообщениеДобавлено: 15 фев 2014 

Париж. Жемчужина Европы

Праздник, который всегда с тобой



Год выпуска: 2008
Страна: Германия, Польша, Россия
Студия: Komplett-Media GmbH
Жанр: документальный
Продолжительность: 01:24:02

Перевод: Профессиональный (дикторский закадровый)
Субтитры: нет
Оригинальная аудиодорожка: нет

Режиссер: Кристиан Оффенберг

Описание:
Париж всегда воспринимается как город любви, радости и искусства. В этом современном, многокультурном городе каждый шаг — путешествие в историю Франции. Лувр и Версаль напоминают о временах расцвета монархии, площадь Бастилии — о Великой французской революции, Триумфальная арка — о победах Наполеона Бонапарта. Во время нашего кинопутешествия мы осмотрим самые прекрасные памятники Парижа и увидим повседневную жизнь этого прекрасного города. Прогуляемся по берегам Сены и по знаменитым Елисейским полям, заглянем в квартал артистической богемы — Монмартр. Откроем для себя романтические уголки с уютными кафе и блошиными рынками, а также увидим, как живет парижская элита.





Исходник: DVD5 R5
Тип релиза: DVDRip-AVC
Контейнер: MKV

Видео: 704->742x568 (4:3), 25 fps, H264 ~ 2094 kbps avg, 0.209 bit/pixel
Аудио: 48 kHz, Dolby AC3 2.0, 192.00 kbps Русский
Аудио: 48 kHz, Dolby AC3 2.0, 192.00 kbps Украинский
Общее
Полное имя : Parizh.Zhemchuzhina.Evropy.2008.DVDRip-AVC_[Youtracker]_by_AVP Studio.mkv
Формат : Matroska
Версия формата : Version 4 / Version 2
Размер файла : 1,46 Гбайт
Продолжительность : 1 ч. 24 м.
Общий поток : 2480 Кбит/сек
Название фильма : Parizh.Zhemchuzhina.Evropy.2008.DVDRip-AVC_[Youtracker]_by_AVP Studio
Дата кодирования : UTC 2013-09-15 05:49:33
Программа кодирования : mkvmerge v6.3.0 ('You can't stop me!') built on Jun 27 2013 22:06:07
Библиотека кодирования : libebml v1.3.0 + libmatroska v1.4.0

Видео
Идентификатор : 1
Формат : AVC
Формат/Информация : Advanced Video Codec
Профиль формата : High@L4.1
Параметр CABAC формата : Да
Параметр ReFrames формата : 11 кадров
Идентификатор кодека : V_MPEG4/ISO/AVC
Продолжительность : 1 ч. 24 м.
Битрейт : 2094 Кбит/сек
Ширина : 704 пикселя
Высота : 568 пикселей
Соотношение сторон : 4:3
Частота кадров : 25,000 кадров/сек
Цветовое пространство : YUV
Субдискретизация насыщенности : 4:2:0
Битовая глубина : 8 бит
Тип развёртки : Прогрессивная
Бит/(Пиксели*Кадры) : 0.209
Размер потока : 1,20 Гбайт (83%)
Заголовок : Источник DVD
Библиотека кодирования : x264 core 138 r2356 a1d3d17
Настройки программы : cabac=1 / ref=11 / deblock=1:-2:-1 / analyse=0x3:0x113 / me=umh / subme=9 / psy=1 / psy_rd=1.00:0.15 / mixed_ref=1 / me_range=32 / chroma_me=1 / trellis=1 / 8x8dct=1 / cqm=0 / deadzone=21,11 / fast_pskip=0 / chroma_qp_offset=-3 / threads=3 / lookahead_threads=1 / sliced_threads=0 / nr=0 / decimate=0 / interlaced=0 / bluray_compat=0 / constrained_intra=0 / bframes=8 / b_pyramid=2 / b_adapt=2 / b_bias=0 / direct=3 / weightb=1 / open_gop=0 / weightp=2 / keyint=250 / keyint_min=25 / scenecut=40 / intra_refresh=0 / rc_lookahead=60 / rc=2pass / mbtree=1 / bitrate=2094 / ratetol=1.0 / qcomp=0.60 / qpmin=0 / qpmax=69 / qpstep=4 / cplxblur=20.0 / qblur=0.5 / ip_ratio=1.40 / aq=1:1.00
Язык : German
Default : Да
Forced : Нет

Аудио #1
Идентификатор : 2
Формат : AC-3
Формат/Информация : Audio Coding 3
Расширение режима : CM (complete main)
Идентификатор кодека : A_AC3
Продолжительность : 1 ч. 24 м.
Вид битрейта : Постоянный
Битрейт : 192 Кбит/сек
Каналы : 2 канала
Расположение каналов : Front: L R
Частота : 48,0 КГц
Битовая глубина : 16 бит
Метод сжатия : С потерями
Размер потока : 115 Мбайт (8%)
Заголовок : Источник DVD Dolby Digital 2,0 192kb
Язык : Russian
Default : Да
Forced : Нет

Аудио #2
Идентификатор : 3
Формат : AC-3
Формат/Информация : Audio Coding 3
Профиль формата : Dolby Digital
Расширение режима : CM (complete main)
Идентификатор кодека : A_AC3
Продолжительность : 1 ч. 24 м.
Вид битрейта : Постоянный
Битрейт : 192 Кбит/сек
Каналы : 2 канала
Расположение каналов : Front: L R
Частота : 48,0 КГц
Битовая глубина : 16 бит
Метод сжатия : С потерями
Размер потока : 115 Мбайт (8%)
Заголовок : Источник DVD Dolby Digital 2,0 192kb
Язык : Ukrainian
Default : Нет
Forced : Нет

Меню
00:00:00.000 : ru:00:00:00.000000000
00:05:00.000 : :00:05:00.000000000
00:10:00.000 : :00:10:00.000000000
00:15:00.000 : :00:15:00.000000000
00:20:00.000 : :00:20:00.000000000
00:25:00.000 : :00:25:00.000000000
00:30:00.000 : :00:30:00.000000000
00:35:00.000 : :00:35:00.000000000
00:40:00.000 : :00:40:00.000000000
00:45:00.000 : :00:45:00.000000000
00:50:00.000 : :00:50:00.000000000
00:55:00.000 : :00:55:00.000000000
01:00:00.000 : :01:00:00.000000000
01:05:00.000 : :01:05:00.000000000
01:10:00.000 : :01:10:00.000000000
01:15:00.000 : :01:15:00.000000000
01:20:00.000 : :01:20:00.000000000





   Похожие торренты   Торрент   Размер 
В этой теме нет новых непрочитанных сообщений. Путешествие по Европе. Выпуск №1: Париж (2008) DVDRip от New-Team

5 | 2

743.03 МБ

В этой теме нет новых непрочитанных сообщений. Путешествие по Европе. Выпуск №1: Париж (2008) DVDRip от New-Team

4 | 2

1.64 ГБ

В этой теме нет новых непрочитанных сообщений. Путешествие по Европе. Выпуск №1: Париж (2008) DVD5 R5 от New-Team

3 | 3

4.1 ГБ

В этой теме нет новых непрочитанных сообщений. Путешествие по Европе. Выпуск №4: Испания (2008) DVDRip от New-Team

34 | 13

744.7 МБ

В этой теме нет новых непрочитанных сообщений. Путешествие по Европе. Выпуск №4: Испания (2008) DVDRip от New-Team

52 | 2

1.46 ГБ

В этой теме нет новых непрочитанных сообщений. Путешествие по Европе. Выпуск №26: Сочи (2008) DVDRip от New-Team

1 | 2

1.1 ГБ

В этой теме нет новых непрочитанных сообщений. Путешествие по Европе. Выпуск №26: Сочи (2008) DVDRip от New-Team

0 | 3

744.78 МБ




Вы не можете начинать темы
Вы не можете отвечать на сообщения
Вы не можете редактировать свои сообщения
Вы не можете удалять свои сообщения
Вы не можете добавлять вложения

Перейти:  
Для Мосгорсуда, Роскомнадзора и рекламодателей: mosgorsud-torrent[собачка]yandex.ru
 Вход
ppkBB3cker v.2 © 2008-2014 @ PPK
[ Time : 0.866s | 15 Queries | GZIP : On ]

Торрент трекер RUTOR.IN, Не можете зайти на rutor.org? Какой новый адрес рутор? Какое зеркало рутор? Не работает rutor.org и зеркала? Тогда наш торрент специально для вас. Rutor.in неофициальное зеркало rutor. В случае если у Вас заблокирован rutor или вдруг Вы не можете на него зайти, то Вы без труда сможете скачать бесплатно и без рекламы последние новинки кино, игр, сериалов и прочего у нас, на Rutor.in. Не нужно использовать прокси, чтобы зайти на рутор, достаточно воспользоваться нашим ресурсом. Все новые фильмы, игры, сериалы, книги и музыка за 2013 и 2014 годы через торрент бесплатно. Скачивайте фильмы в хорошем качестве, игры для пк, xbox, playstation без регистрации. У нас вы найдете новые Зарубежные сериалы и Русские сериалы 2013, 2014, 2015 годов. Оставайтесь с нами, качайте любимые фильмы, игры, сериалы, книги и музыку.