img image001 image001 image001 image001 image001 image001 image001 image001 image001 image001 image001 image001 image001 image001 image001

Planets Sun Sun Sun
Статистика раздачи
Автор: PriZraK | Размер: 10.34 ГБ | Добавлен: 15 фев 2014
Раздают: 1    Качают: 1
Скачать торрент
Скачать торрент
Описание торрента

СообщениеДобавлено: 15 фев 2014 

Информация о фильме
Название: Легенды Исландии
Оригинальное название: Journey's End
Год выхода: 2013
Жанр: Документальный
Режиссер: Рагнар Хэнсон
О фильме:Авторы сериала достоверно воссоздают древнюю историю Исландии с помощью исследований ученых и археологических находок. До сих пор ценность исландских саг как источника исторических данных ставилась под сомнение. Но что, если в них рассказывается правда об истории этой удивительной страны?

Страна: Исландия
Студия: Vesturport
Продолжительность:
Перевод: Профессиональный одноголосый

Файл
Кодек: x264
Качество: HDTVRip 1080p
Видео: MPEG-4 AVC, 8500 Кбит/с, 1920x1064, 25.000 кадр/с
Звук:
Русский (AC3, 2 ch, 384 Кбит/с)
Исландский (AC3, 2 ch, 384 Кбит/с)
Семпл
Формат : Matroska
Версия формата : Version 2
Размер файла : 1,72 Гбайт
Продолжительность : 26 м.
Общий поток : 9269 Кбит/сек
Название фильма : Release for MediaClub by AlexAndr92
Дата кодирования : UTC 2013-09-15 16:30:11
Программа кодирования : mkvmerge v4.0.0 ('The Stars were mine') сборка от Jun 6 2010 16:18:42
Библиотека кодирования : libebml v1.0.0 + libmatroska v1.0.0

Видео
Идентификатор : 1
Формат : AVC
Формат/Информация : Advanced Video Codec
Профиль формата : High@L4.1
Параметр CABAC формата : Да
Параметр ReFrames формата : 4 кадра
Идентификатор кодека : V_MPEG4/ISO/AVC
Продолжительность : 26 м.
Битрейт : 8500 Кбит/сек
Ширина : 1920 пикселей
Высота : 1064 пикселя
Соотношение сторон : 16:9
Режим частоты кадров : Постоянный
Частота кадров : 25,000 кадров/сек
Цветовое пространство : YUV
Субдискретизация насыщенности : 4:2:0
Битовая глубина : 8 бит
Тип развёртки : Прогрессивная
Бит/(Пиксели*Кадры) : 0.166
Размер потока : 1,54 Гбайт (90%)
Библиотека кодирования : x264 core 130 r2273 b3065e6
Настройки программы : cabac=1 / ref=4 / deblock=1:-2:-2 / analyse=0x3:0x133 / me=umh / subme=11 / psy=1 / psy_rd=1.00:0.15 / mixed_ref=1 / me_range=32 / chroma_me=1 / trellis=2 / 8x8dct=1 / cqm=0 / deadzone=21,11 / fast_pskip=0 / chroma_qp_offset=-3 / threads=6 / lookahead_threads=1 / sliced_threads=0 / nr=0 / decimate=0 / interlaced=0 / bluray_compat=0 / constrained_intra=0 / bframes=8 / b_pyramid=2 / b_adapt=2 / b_bias=0 / direct=3 / weightb=1 / open_gop=0 / weightp=2 / keyint=250 / keyint_min=25 / scenecut=40 / intra_refresh=0 / rc=2pass / mbtree=0 / bitrate=8500 / ratetol=1.0 / qcomp=0.60 / qpmin=0 / qpmax=69 / qpstep=4 / cplxblur=20.0 / qblur=0.5 / ip_ratio=1.40 / pb_ratio=1.30 / aq=1:1.00
Default : Нет
Forced : Нет

Аудио #1
Идентификатор : 2
Формат : AC-3
Формат/Информация : Audio Coding 3
Расширение режима : CM (complete main)
Параметр Endianness формата : Big
Идентификатор кодека : A_AC3
Продолжительность : 26 м.
Вид битрейта : Постоянный
Битрейт : 384 Кбит/сек
Каналы : 2 канала
Расположение каналов : Front: L R
Частота : 48,0 КГц
Битовая глубина : 16 бит
Метод сжатия : С потерями
Размер потока : 72,8 Мбайт (4%)
Язык : Russian
Default : Нет
Forced : Нет

Аудио #2
Идентификатор : 3
Формат : AC-3
Формат/Информация : Audio Coding 3
Расширение режима : CM (complete main)
Параметр Endianness формата : Big
Идентификатор кодека : A_AC3
Продолжительность : 26 м.
Вид битрейта : Постоянный
Битрейт : 384 Кбит/сек
Каналы : 2 канала
Расположение каналов : Front: L R
Частота : 44,1 КГц
Битовая глубина : 16 бит
Метод сжатия : С потерями
Размер потока : 72,8 Мбайт (4%)
Язык : Icelandic
Default : Нет
Forced : Нет





Релиз от: | AlexAndr92



   Похожие торренты   Торрент   Размер 
В этой теме нет новых непрочитанных сообщений. Легенды Исландии / Journey's End [01-06 из 06] (2013) SATRip

13 | 2

2.25 ГБ

В этой теме нет новых непрочитанных сообщений. От Помпеи до Исландии. Кто следующий? (2011) SATRip

0 | 3

489.69 МБ

В этой теме нет новых непрочитанных сообщений. Геракл: Начало легенды / The Legend of Hercules (2013) BDRip от MediaClub | КПК | Чистый звук

72 | 11

445.99 МБ

В этой теме нет новых непрочитанных сообщений. Кролик Джазит II / The Mystery Journey of Jazzit II [s02] (2013) WEB-DLRip 1080p от ExKinoRay | D

2 | 0

14.62 ГБ

В этой теме нет новых непрочитанных сообщений. Кролик Джазит / The Mystery Journey of Jazzit [s01] (2013) WEB-DLRip 1080p от ExKinoRay | D

2 | 1

11.43 ГБ

В этой теме нет новых непрочитанных сообщений. Пельмени (2013) HDTVRip 1080p от MediaClub

55 | 6

3.58 ГБ

В этой теме нет новых непрочитанных сообщений. Освенцим. Путешествие в ад / Auschwitz. Journey Into Hell (2013) HDTVRip 720p

802 | 134

1.33 ГБ




Вы не можете начинать темы
Вы не можете отвечать на сообщения
Вы не можете редактировать свои сообщения
Вы не можете удалять свои сообщения
Вы не можете добавлять вложения

Перейти:  
Для Мосгорсуда, Роскомнадзора и рекламодателей: mosgorsud-torrent[собачка]yandex.ru
 Вход
ppkBB3cker v.2 © 2008-2014 @ PPK
[ Time : 0.041s | 15 Queries | GZIP : Off ]

Торрент трекер RUTOR.IN, Не можете зайти на rutor.org? Какой новый адрес рутор? Какое зеркало рутор? Не работает rutor.org и зеркала? Тогда наш торрент специально для вас. Rutor.in неофициальное зеркало rutor. В случае если у Вас заблокирован rutor или вдруг Вы не можете на него зайти, то Вы без труда сможете скачать бесплатно и без рекламы последние новинки кино, игр, сериалов и прочего у нас, на Rutor.in. Не нужно использовать прокси, чтобы зайти на рутор, достаточно воспользоваться нашим ресурсом. Все новые фильмы, игры, сериалы, книги и музыка за 2013 и 2014 годы через торрент бесплатно. Скачивайте фильмы в хорошем качестве, игры для пк, xbox, playstation без регистрации. У нас вы найдете новые Зарубежные сериалы и Русские сериалы 2013, 2014, 2015 годов. Оставайтесь с нами, качайте любимые фильмы, игры, сериалы, книги и музыку.