img image001 image001 image001 image001 image001 image001 image001 image001 image001 image001 image001 image001 image001 image001 image001

Planets Sun Sun Sun
Статистика раздачи
Автор: PriZraK | Размер: 744.12 МБ | Добавлен: 15 фев 2014
Раздают: 27    Качают: 4
Скачать торрент
Скачать торрент
Описание торрента

СообщениеДобавлено: 15 фев 2014 

Ирландия. Вечнозеленый остров



Год выпуска: 2011
Страна: Германия, Польша, Россия
Студия: Komplett-Media GmbH
Жанр: документальный
Продолжительность: 01:28:26

Перевод: Профессиональный (дикторский закадровый)
Субтитры: нет
Оригинальная аудиодорожка: нет

Описание:
Путешествие по острову, чья красочная и таинственная история уходит корнями во глубину веков, мы начнем в столице Ирландии — Дублине. Для начала мы осмотрим Тринити-Колледж с его знаменитой библиотекой, собор Св. Патрика, замок, а на десерт — известную во всем мире пивоварню «Гиннесс». Неподалеку от Дублина находится Холм Тары, некогда важнейший религиозный и политический центр острова, а также таинственная гробница Ньюгрейндж. Визитной карточкой одного из старейших городов Ирландии — Килкенни — стал возвышающийся над рекой Нор замок рода Батлеров. Великолепные средневековые замки можно увидеть и в других живописных городках: Кобе, Лимерике и Кэре. Еще более древняя история у могучей крепости-собора на 60-метровой скале Рок оф Кэшел. Юго-запад острова привлекает не только памятниками старины, но, прежде всего, прекрасными пейзажами. Полуострова Керри, Бера и Дингл наряду с национальным парком Килларни притягивают любителей дикой природы. Необыкновенные впечатления останутся у нас после встречи с океаном на скалах Мохер, прогулки по каменистым пустошам Буррен и путешествия по дикому горному краю Коннемара. Одной из последних остановок на нашем пути станет Голуэй — гостеприимный университетский городок на западе страны.





Исходник: DVD5 R5
Тип релиза: DVDRip
Контейнер: AVI

Видео: 608x464 (4:3), 25 fps, XviD ~ 1039 kbps avg, 0.147 bit/pixel
Аудио: 48 kHz, MP3 2.0, 128.00 kbps
Общее
Полное имя : Irlandiya.Vechnozelenyy.ostrov.2011.DVDRip-745_[Youtracker]_by_AVP Studio.avi
Формат : AVI
Формат/Информация : Audio Video Interleave
Размер файла : 744 Мбайт
Продолжительность : 1 ч. 28 м.
Общий поток : 1176 Кбит/сек
Программа кодирования : VirtualDubModRus 1.5.10.2 (build 2542/release)
Библиотека кодирования : VirtualDubMod build 2542/release

Видео
Идентификатор : 0
Формат : MPEG-4 Visual
Профиль формата : Advanced Simple@L5
Параметр BVOP формата : 1
Параметр QPel формата : Нет
Параметр GMC формата : Без точки перехода
Параметр матрицы формата : Выборочная
Идентификатор кодека : XVID
Идентификатор кодека/Подсказка : XviD
Продолжительность : 1 ч. 28 м.
Битрейт : 1039 Кбит/сек
Ширина : 608 пикселей
Высота : 464 пикселя
Соотношение сторон : 4:3
Частота кадров : 25,000 кадров/сек
Цветовое пространство : YUV
Субдискретизация насыщенности : 4:2:0
Битовая глубина : 8 бит
Тип развёртки : Прогрессивная
Метод сжатия : С потерями
Бит/(Пиксели*Кадры) : 0.147
Размер потока : 657 Мбайт (88%)
Библиотека кодирования : XviD 73

Аудио
Идентификатор : 1
Формат : MPEG Audio
Версия формата : Version 1
Профиль формата : Layer 3
Идентификатор кодека : 55
Идентификатор кодека/Подсказка : MP3
Продолжительность : 1 ч. 28 м.
Вид битрейта : Постоянный
Битрейт : 128 Кбит/сек
Каналы : 2 канала
Частота : 48,0 КГц
Метод сжатия : С потерями
Размер потока : 81,0 Мбайт (11%)
Выравнивание : Соединение по промежуткам
Продолжительность промежутка : 40 мс. (1,00 видеокадр)
Время предзагрузки промежутка : 504 мс.
Библиотека кодирования : LAME3.99r
Настройки программы : -m s -V 4 -q 2 -lowpass 17 -b 128





   Похожие торренты   Торрент   Размер 
В этой теме нет новых непрочитанных сообщений. Путешествие по Европе. Выпуск №18: Ирландия (2011) DVDRip от New-Team

6 | 2

1.46 ГБ

В этой теме нет новых непрочитанных сообщений. Путешествие по Европе. Выпуск №18: Ирландия (2011) DVDRip-AVC от New-Team

17 | 4

1.46 ГБ

В этой теме нет новых непрочитанных сообщений. Путешествие по Европе. Выпуск №18: Ирландия (2011) DVD5 R5 от New-Team

3 | 2

4.13 ГБ

В этой теме нет новых непрочитанных сообщений. Путешествие по Европе. Выпуск №41: Польша (2011) DVDRip от New-Team

6 | 3

1.45 ГБ

В этой теме нет новых непрочитанных сообщений. Путешествие по Европе. Выпуск №41: Польша (2011) DVDRip-AVC от New-Team

1 | 2

1.46 ГБ

В этой теме нет новых непрочитанных сообщений. Путешествие по Европе. Выпуск №30: Франция (2011) DVDRip от New-Team

4 | 2

1.46 ГБ

В этой теме нет новых непрочитанных сообщений. Путешествие по Европе. Выпуск №30: Франция (2011) DVDRip-AVC от New-Team

4 | 15

1.46 ГБ




Вы не можете начинать темы
Вы не можете отвечать на сообщения
Вы не можете редактировать свои сообщения
Вы не можете удалять свои сообщения
Вы не можете добавлять вложения

Перейти:  
Для Мосгорсуда, Роскомнадзора и рекламодателей: mosgorsud-torrent[собачка]yandex.ru
 Вход
ppkBB3cker v.2 © 2008-2014 @ PPK
[ Time : 0.034s | 17 Queries | GZIP : On ]

Торрент трекер RUTOR.IN, Не можете зайти на rutor.org? Какой новый адрес рутор? Какое зеркало рутор? Не работает rutor.org и зеркала? Тогда наш торрент специально для вас. Rutor.in неофициальное зеркало rutor. В случае если у Вас заблокирован rutor или вдруг Вы не можете на него зайти, то Вы без труда сможете скачать бесплатно и без рекламы последние новинки кино, игр, сериалов и прочего у нас, на Rutor.in. Не нужно использовать прокси, чтобы зайти на рутор, достаточно воспользоваться нашим ресурсом. Все новые фильмы, игры, сериалы, книги и музыка за 2013 и 2014 годы через торрент бесплатно. Скачивайте фильмы в хорошем качестве, игры для пк, xbox, playstation без регистрации. У нас вы найдете новые Зарубежные сериалы и Русские сериалы 2013, 2014, 2015 годов. Оставайтесь с нами, качайте любимые фильмы, игры, сериалы, книги и музыку.