img image001 image001 image001 image001 image001 image001 image001 image001 image001 image001 image001 image001 image001 image001 image001

Planets Sun Sun Sun
Статистика раздачи
Автор: PriZraK | Размер: 700.45 МБ | Добавлен: 15 фев 2014
Раздают: 0    Качают: 2
Скачать торрент
Скачать торрент
Описание торрента

СообщениеДобавлено: 15 фев 2014 

Приручить дракона
Touching the Dragon




Год выпуска: 2012
Страна: США
Жанр: Документальный
Продолжительность: 00:44:59
Перевод: Профессиональный (дублированный) | Игорь Тарадайкин / АРК·ТВ
Интервью и комментарии - Профессиональный (одноголосый закадровый)
Русские субтитры: нет


Режиссеры: Крейг Фостер / Craig Foster, Дэймон Фостер / Damon Foster

Описание: Роджер Хоррокс расследует историю "крокодильего шамана", который может без опасности для жизни плавать и ездить на спине крокодила.

A simple thought took photojournalist Roger Horrocks halfway around the world to Costa Rica on a mission to find Chito, a man many referred to as the crocodile shaman. Many years ago, Chito nursed an injured crocodile, which he calls Pocho, back to health. Since then, the two formed an unthinkable bond. Touching the Dragon examines this astonishing relationship between the earth's most ancient predator and a unique man, one that defies the boundaries of the natural world.


Автор рипа: Leo.pard
Исходник: HDTV 1080i Спасибо LeXa 84!


Kачество: HDTVRip
Формат: AVI
Видео: XviD, 720x400 (16:9), 1975 Kbps, 25 fps
Аудио: MP2, 192 Kbps, 48 KHz, 2 channels

Сэмпл: http://multi-up.com/904815

General
Complete name : D:Priruchit'.drakona.2012.HDTVRip.avi
Format : AVI
Format/Info : Audio Video Interleave
File size : 700 MiB
Duration : 44mn 59s
Overall bit rate : 2 177 Kbps
Writing application : VirtualDubMod 1.5.10.3 | www.virtualdub-fr.org || (build 2550/release)
Writing library : VirtualDubMod build 2550/release

Video
ID : 0
Format : MPEG-4 Visual
Format profile : Advanced Simple@L5
Format settings, BVOP : 1
Format settings, QPel : No
Format settings, GMC : No warppoints
Format settings, Matrix : Custom
Codec ID : XVID
Codec ID/Hint : XviD
Duration : 44mn 59s
Bit rate : 1 975 Kbps
Width : 720 pixels
Height : 400 pixels
Display aspect ratio : 16:9
Frame rate : 25.000 fps
Color space : YUV
Chroma subsampling : 4:2:0
Bit depth : 8 bits
Scan type : Progressive
Compression mode : Lossy
Bits/(Pixel*Frame) : 0.274
Stream size : 636 MiB (91%)
Writing library : XviD 73

Audio
ID : 1
Format : MPEG Audio
Format version : Version 1
Format profile : Layer 2
Codec ID : 50
Duration : 44mn 59s
Bit rate mode : Constant
Bit rate : 192 Kbps
Channel(s) : 2 channels
Sampling rate : 48.0 KHz
Compression mode : Lossy
Stream size : 61.8 MiB (9%)
Alignment : Aligned on interleaves
Interleave, duration : 40 ms (1.00 video frame)
Interleave, preload duration : 504 ms







   Похожие торренты   Торрент   Размер 
В этой теме нет новых непрочитанных сообщений. Nat Geo Wild: Приручить дракона / Touching the Dragon (2012) HDTVRip-AVC от Leo.pard | D

18 | 2

700.14 МБ

В этой теме нет новых непрочитанных сообщений. Как приручить дракона / How to Train Your Dragon (2010) DVD9

476 | 53

6.36 ГБ

В этой теме нет новых непрочитанных сообщений. Как приручить дракона 2 / How to Train Your Dragon 2 (2014) CAMRip

1177 | 50

697.31 МБ

В этой теме нет новых непрочитанных сообщений. Как приручить дракона / How to Train Your Dragon (2010) HDRip

1135 | 19

1.36 ГБ

В этой теме нет новых непрочитанных сообщений. Как приручить дракона 2 / How to Train Your Dragon 2 (2014) CAMRip

2373 | 115

1.36 ГБ

В этой теме нет новых непрочитанных сообщений. Как приручить дракона / How to Train Your Dragon (2010) BDRemux

16 | 5

25.99 ГБ

В этой теме нет новых непрочитанных сообщений. Как приручить дракона / How to Train Your Dragon (2010) BDRip от HQCLUB

107 | 6

1.45 ГБ




Вы не можете начинать темы
Вы не можете отвечать на сообщения
Вы не можете редактировать свои сообщения
Вы не можете удалять свои сообщения
Вы не можете добавлять вложения

Перейти:  
Для Мосгорсуда, Роскомнадзора и рекламодателей: mosgorsud-torrent[собачка]yandex.ru
 Вход
ppkBB3cker v.2 © 2008-2014 @ PPK
[ Time : 0.021s | 16 Queries | GZIP : Off ]

Торрент трекер RUTOR.IN, Не можете зайти на rutor.org? Какой новый адрес рутор? Какое зеркало рутор? Не работает rutor.org и зеркала? Тогда наш торрент специально для вас. Rutor.in неофициальное зеркало rutor. В случае если у Вас заблокирован rutor или вдруг Вы не можете на него зайти, то Вы без труда сможете скачать бесплатно и без рекламы последние новинки кино, игр, сериалов и прочего у нас, на Rutor.in. Не нужно использовать прокси, чтобы зайти на рутор, достаточно воспользоваться нашим ресурсом. Все новые фильмы, игры, сериалы, книги и музыка за 2013 и 2014 годы через торрент бесплатно. Скачивайте фильмы в хорошем качестве, игры для пк, xbox, playstation без регистрации. У нас вы найдете новые Зарубежные сериалы и Русские сериалы 2013, 2014, 2015 годов. Оставайтесь с нами, качайте любимые фильмы, игры, сериалы, книги и музыку.